<?xml version="1.0" standalone="no"?>
<!DOCTYPE svg PUBLIC "-//W3C//DTD SVG 1.1//EN" "http://www.w3.org/Graphics/SVG/1.1/DTD/svg11.dtd" >
<svg xmlns="http://www.w3.org/2000/svg" xmlns:xlink="http://www.w3.org/1999/xlink" version="1.1">
<metadata>
Created by FontForge 20150318 at Fri Sep 18 11:26:34 2015
 By uniteet7
Digitized data copyright (c) 2012-2015, The Mozilla Foundation and Telefonica S.A.
</metadata>
<defs>
<font id="FiraSans-UltraLight" horiz-adv-x="560" >
  <font-face 
    font-family="Fira Sans UltraLight"
    font-weight="200"
    font-stretch="normal"
    units-per-em="1000"
    panose-1="2 11 3 3 5 0 0 2 0 4"
    ascent="800"
    descent="-200"
    x-height="520"
    cap-height="682"
    bbox="-732 -350 1360 1050"
    underline-thickness="50"
    underline-position="-50"
    unicode-range="U+000D-1F310"
  />
<missing-glyph horiz-adv-x="666" 
d="M543 -350h-420v1400h420v-1400zM178 998v-1296h311v1296h-311zM409.5 419q25.5 -32 25.5 -83q0 -53 -22.5 -82t-72.5 -36v-45q0 -11 -7.5 -17.5t-17.5 -6.5t-17.5 6.5t-7.5 17.5v84q53 3 72 19.5t19 57.5q0 33 -13 51t-48 18q-29 0 -52 -11q-8 -3 -13 -3q-11 0 -17.5 6.5
t-6.5 16.5q0 19 29.5 29t63.5 10q60 0 85.5 -32zM340 110q10 -10 10 -25q0 -16 -10 -26.5t-25 -10.5t-25 10.5t-10 26.5q0 15 10 25t25 10t25 -10z" />
    <glyph glyph-name="fi" unicode="fi" horiz-adv-x="554" 
d="M397 701l-14 -28q-33 17 -64.5 26t-68.5 9q-49 0 -74.5 -21.5t-25.5 -76.5v-90h291v-520h-34v491h-257v-491h-34v491h-87v29h87v96q0 61 35.5 92t97.5 31q76 0 148 -38z" />
    <glyph glyph-name="fl" unicode="fl" horiz-adv-x="577" 
d="M538 1q-24 -11 -51 -11q-79 0 -79 90v602q-41 14 -74.5 20t-71.5 6q-56 0 -84 -22.5t-28 -73.5v-92h145l-5 -29h-140v-491h-34v491h-87v29h87v96q0 59 37.5 91t105.5 32q40 0 72.5 -6t76.5 -20l34 5v-639q0 -30 11.5 -44t38.5 -14q17 0 36 8z" />
    <glyph glyph-name=".notdef" horiz-adv-x="666" 
d="M543 -350h-420v1400h420v-1400zM178 998v-1296h311v1296h-311zM409.5 419q25.5 -32 25.5 -83q0 -53 -22.5 -82t-72.5 -36v-45q0 -11 -7.5 -17.5t-17.5 -6.5t-17.5 6.5t-7.5 17.5v84q53 3 72 19.5t19 57.5q0 33 -13 51t-48 18q-29 0 -52 -11q-8 -3 -13 -3q-11 0 -17.5 6.5
t-6.5 16.5q0 19 29.5 29t63.5 10q60 0 85.5 -32zM340 110q10 -10 10 -25q0 -16 -10 -26.5t-25 -10.5t-25 10.5t-10 26.5q0 15 10 25t25 10t25 -10z" />
    <glyph glyph-name="null" horiz-adv-x="0" 
 />
    <glyph glyph-name="nonmarkingreturn" unicode="&#xd;" horiz-adv-x="288" 
 />
    <glyph glyph-name="space" unicode=" " horiz-adv-x="288" 
 />
    <glyph glyph-name="A" unicode="A" horiz-adv-x="559" 
d="M432 197h-307l-66 -197h-35l234 682h43l234 -682h-37zM421 229l-142 425l-143 -425h285z" />
    <glyph glyph-name="Aacute" unicode="&#xc1;" horiz-adv-x="559" 
d="M432 197h-307l-66 -197h-35l234 682h43l234 -682h-37zM421 229l-142 425l-143 -425h285zM377 837l-186 -76l-10 22l178 89z" />
    <glyph glyph-name="Abreve" unicode="&#x102;" horiz-adv-x="559" 
d="M432 197h-307l-66 -197h-35l234 682h43l234 -682h-37zM421 229l-142 425l-143 -425h285zM203 793.5q-32 24.5 -39 60.5l25 5q9 -26 32.5 -42t57.5 -16t58 16t33 42l25 -5q-7 -36 -39 -60.5t-77 -24.5q-44 0 -76 24.5z" />
    <glyph glyph-name="uni1EAE" unicode="&#x1eae;" horiz-adv-x="559" 
d="M279 852l-18 16l101 123l26 -24zM203 761.5q-32 24.5 -39 60.5l25 5q9 -26 32.5 -42t57.5 -16t58 16t33 42l25 -5q-7 -36 -39 -60.5t-77 -24.5q-44 0 -76 24.5zM432 197h-307l-66 -197h-35l234 682h43l234 -682h-37zM421 229l-142 425l-143 -425h285z" />
    <glyph glyph-name="uni1EB6" unicode="&#x1eb6;" horiz-adv-x="559" 
d="M432 197h-307l-66 -197h-35l234 682h43l234 -682h-37zM421 229l-142 425l-143 -425h285zM203 793.5q-32 24.5 -39 60.5l25 5q9 -26 32.5 -42t57.5 -16t58 16t33 42l25 -5q-7 -36 -39 -60.5t-77 -24.5q-44 0 -76 24.5zM258.5 -141q-7.5 8 -7.5 19t7.5 19t21.5 8
q12 0 20 -8t8 -19t-8 -19t-20 -8q-14 0 -21.5 8z" />
    <glyph glyph-name="uni1EB0" unicode="&#x1eb0;" horiz-adv-x="559" 
d="M292 852l-109 115l26 24l101 -123zM203 761.5q-32 24.5 -39 60.5l25 5q9 -26 32.5 -42t57.5 -16t58 16t33 42l25 -5q-7 -36 -39 -60.5t-77 -24.5q-44 0 -76 24.5zM432 197h-307l-66 -197h-35l234 682h43l234 -682h-37zM421 229l-142 425l-143 -425h285z" />
    <glyph glyph-name="uni1EB2" unicode="&#x1eb2;" horiz-adv-x="559" 
d="M224 971l-12 24q33 19 72 19q38 0 60 -19.5t22 -51.5q0 -63 -70 -71v-45h-33v65q68 2 68 50q0 20 -13 31.5t-36 11.5q-30 0 -58 -14zM203 761.5q-32 24.5 -39 60.5l25 5q9 -26 32.5 -42t57.5 -16t58 16t33 42l25 -5q-7 -36 -39 -60.5t-77 -24.5q-44 0 -76 24.5zM432 197
h-307l-66 -197h-35l234 682h43l234 -682h-37zM421 229l-142 425l-143 -425h285z" />
    <glyph glyph-name="uni1EB4" unicode="&#x1eb4;" horiz-adv-x="559" 
d="M193.5 916q-13.5 -8 -28.5 -28l-21 12q33 54 80 54q13 0 26 -5t33 -16q21 -11 33.5 -16.5t25.5 -5.5q16 0 29 9.5t29 33.5l21 -12q-30 -61 -79 -61q-18 0 -34 6.5t-37 18.5q-3 1 -13 7t-18.5 8.5t-15.5 2.5q-17 0 -30.5 -8zM337 785q24 16 33 42l25 -5q-7 -36 -39 -60.5
t-77 -24.5q-44 0 -76 24.5t-39 60.5l25 5q9 -26 32.5 -42t57.5 -16t58 16zM432 197h-307l-66 -197h-35l234 682h43l234 -682h-37zM421 229l-142 425l-143 -425h285z" />
    <glyph glyph-name="uni01CD" unicode="&#x1cd;" horiz-adv-x="559" 
d="M432 197h-307l-66 -197h-35l234 682h43l234 -682h-37zM421 229l-142 425l-143 -425h285zM413 853l-124 -95h-19l-126 95l17 20l118 -80l118 80z" />
    <glyph glyph-name="Acircumflex" unicode="&#xc2;" horiz-adv-x="559" 
d="M432 197h-307l-66 -197h-35l234 682h43l234 -682h-37zM421 229l-142 425l-143 -425h285zM279 844l-118 -79l-17 19l126 95h19l124 -95l-16 -19z" />
    <glyph glyph-name="uni1EA4" unicode="&#x1ea4;" horiz-adv-x="559" 
d="M383 829l-18 16l101 123l26 -24zM161 736l-17 19l126 95h19l124 -95l-16 -19l-118 79zM432 197h-307l-66 -197h-35l234 682h43l234 -682h-37zM421 229l-142 425l-143 -425h285z" />
    <glyph glyph-name="uni1EAC" unicode="&#x1eac;" horiz-adv-x="559" 
d="M432 197h-307l-66 -197h-35l234 682h43l234 -682h-37zM421 229l-142 425l-143 -425h285zM279 844l-118 -79l-17 19l126 95h19l124 -95l-16 -19zM258.5 -141q-7.5 8 -7.5 19t7.5 19t21.5 8q12 0 20 -8t8 -19t-8 -19t-20 -8q-14 0 -21.5 8z" />
    <glyph glyph-name="uni1EA6" unicode="&#x1ea6;" horiz-adv-x="559" 
d="M182 829l-109 115l26 24l101 -123zM144 755l126 95h19l124 -95l-16 -19l-118 79l-118 -79zM432 197h-307l-66 -197h-35l234 682h43l234 -682h-37zM421 229l-142 425l-143 -425h285z" />
    <glyph glyph-name="uni1EA8" unicode="&#x1ea8;" horiz-adv-x="559" 
d="M335 954l-12 24q33 19 72 19q38 0 60 -19.5t22 -51.5q0 -63 -70 -71v-45h-33v65q68 2 68 50q0 20 -13 31.5t-36 11.5q-30 0 -58 -14zM161 736l-17 19l126 95h19l124 -95l-16 -19l-118 79zM432 197h-307l-66 -197h-35l234 682h43l234 -682h-37zM421 229l-142 425
l-143 -425h285z" />
    <glyph glyph-name="uni1EAA" unicode="&#x1eaa;" horiz-adv-x="559" 
d="M189.5 930q-13.5 -8 -28.5 -28l-21 12q33 54 80 54q13 0 26 -5t33 -16q21 -11 33.5 -16.5t25.5 -5.5q16 0 29 9.5t29 33.5l21 -12q-30 -61 -79 -61q-18 0 -34 6.5t-37 18.5q-3 1 -13 7t-18.5 8.5t-15.5 2.5q-17 0 -30.5 -8zM289 850l124 -95l-16 -19l-118 79l-118 -79
l-17 19l126 95h19zM432 197h-307l-66 -197h-35l234 682h43l234 -682h-37zM421 229l-142 425l-143 -425h285z" />
    <glyph glyph-name="uni0200" unicode="&#x200;" horiz-adv-x="559" 
d="M432 197h-307l-66 -197h-35l234 682h43l234 -682h-37zM421 229l-142 425l-143 -425h285zM250 822l-24 -12l-84 131l34 17zM356 826l-24 -12l-76 126l34 18z" />
    <glyph glyph-name="Adieresis" unicode="&#xc4;" horiz-adv-x="559" 
d="M432 197h-307l-66 -197h-35l234 682h43l234 -682h-37zM421 229l-142 425l-143 -425h285zM211 841.5q8 -7.5 8 -19.5q0 -11 -8 -19t-20 -8t-19.5 8t-7.5 19t7.5 19t19.5 8t20 -7.5zM386 841.5q8 -7.5 8 -19.5q0 -11 -8 -19t-20 -8q-13 0 -20.5 8t-7.5 19q0 12 7.5 19.5
t20.5 7.5q12 0 20 -7.5z" />
    <glyph glyph-name="uni01DE" unicode="&#x1de;" horiz-adv-x="559" 
d="M390 860h-218v32h218v-32zM171.5 750q-7.5 8 -7.5 19t7.5 19t19.5 8q13 0 20.5 -7.5t7.5 -19.5q0 -11 -7.5 -19t-20.5 -8q-12 0 -19.5 8zM386.5 788.5q7.5 -7.5 7.5 -19.5q0 -11 -7.5 -19t-20.5 -8q-12 0 -20 8t-8 19q0 12 8 19.5t20 7.5q13 0 20.5 -7.5zM432 197h-307
l-66 -197h-35l234 682h43l234 -682h-37zM421 229l-142 425l-143 -425h285z" />
    <glyph glyph-name="uni0226" unicode="&#x226;" horiz-adv-x="559" 
d="M432 197h-307l-66 -197h-35l234 682h43l234 -682h-37zM421 229l-142 425l-143 -425h285zM300.5 852q7.5 -8 7.5 -19q0 -12 -7.5 -20t-21.5 -8q-12 0 -20 8t-8 20q0 11 8 19t20 8q14 0 21.5 -8z" />
    <glyph glyph-name="uni1EA0" unicode="&#x1ea0;" horiz-adv-x="559" 
d="M432 197h-307l-66 -197h-35l234 682h43l234 -682h-37zM421 229l-142 425l-143 -425h285zM258.5 -141q-7.5 8 -7.5 19t7.5 19t21.5 8q12 0 20 -8t8 -19t-8 -19t-20 -8q-14 0 -21.5 8z" />
    <glyph glyph-name="uni01E0" unicode="&#x1e0;" horiz-adv-x="559" 
d="M389 859h-218v32h218v-32zM259 790q8 8 20 8q14 0 21.5 -8t7.5 -19q0 -12 -7.5 -20t-21.5 -8q-12 0 -20 8t-8 20q0 11 8 19zM432 197h-307l-66 -197h-35l234 682h43l234 -682h-37zM421 229l-142 425l-143 -425h285z" />
    <glyph glyph-name="Agrave" unicode="&#xc0;" horiz-adv-x="559" 
d="M432 197h-307l-66 -197h-35l234 682h43l234 -682h-37zM421 229l-142 425l-143 -425h285zM376 783l-10 -22l-186 76l17 35z" />
    <glyph glyph-name="uni1EA2" unicode="&#x1ea2;" horiz-adv-x="559" 
d="M432 197h-307l-66 -197h-35l234 682h43l234 -682h-37zM421 229l-142 425l-143 -425h285zM261 847q68 2 68 50q0 20 -13 31.5t-36 11.5q-30 0 -58 -14l-12 24q33 19 72 19q38 0 60 -19.5t22 -51.5q0 -63 -70 -71v-45h-33v65z" />
    <glyph glyph-name="uni0202" unicode="&#x202;" horiz-adv-x="559" 
d="M432 197h-307l-66 -197h-35l234 682h43l234 -682h-37zM421 229l-142 425l-143 -425h285zM356.5 865.5q31.5 -26.5 38.5 -68.5l-25 -5q-9 33 -32.5 50.5t-58.5 17.5t-58 -17.5t-32 -50.5l-25 5q7 42 38.5 68.5t76.5 26.5q46 0 77.5 -26.5z" />
    <glyph glyph-name="uni2C6D" unicode="&#x2c6d;" horiz-adv-x="667" 
d="M555.5 51.5q10.5 -16.5 37.5 -27.5l-11 -29q-34 11 -50.5 30t-20.5 54q-70 -89 -179 -89q-74 0 -132.5 39t-92 115.5t-33.5 184.5q0 115 34 197t94.5 124.5t136.5 42.5q105 0 172 -77l3 66h31v-575q0 -39 10.5 -55.5zM510 119v458q-31 41 -75 62t-95 21q-67 0 -119 -37
t-81.5 -111t-29.5 -183q0 -100 29.5 -169t80 -103.5t113.5 -34.5q110 0 177 97z" />
    <glyph glyph-name="Amacron" unicode="&#x100;" horiz-adv-x="559" 
d="M432 197h-307l-66 -197h-35l234 682h43l234 -682h-37zM421 229l-142 425l-143 -425h285zM171 808v32h218v-32h-218z" />
    <glyph glyph-name="Aogonek" unicode="&#x104;" horiz-adv-x="559" 
d="M428.5 -160.5q16.5 -14.5 50.5 -14.5q25 0 56 6l-3 -33q-30 -6 -55 -6q-50 0 -75.5 23.5t-25.5 61.5q0 41 29.5 72t89.5 59l-63 189h-307l-66 -197h-35l234 682h43l234 -682h-2q-65 -30 -93 -56t-28 -65q0 -25 16.5 -39.5zM421 229l-142 425l-143 -425h285z" />
    <glyph glyph-name="Aring" unicode="&#xc5;" horiz-adv-x="559" 
d="M432 197h-307l-66 -197h-35l234 682h43l234 -682h-37zM421 229l-142 425l-143 -425h285zM343.5 912.5q24.5 -23.5 24.5 -62.5q0 -38 -24.5 -61.5t-63.5 -23.5t-63.5 23.5t-24.5 61.5q0 39 24.5 62.5t63.5 23.5t63.5 -23.5zM237.5 894.5q-14.5 -15.5 -14.5 -44.5
q0 -28 14.5 -43.5t42.5 -15.5q27 0 42 15.5t15 43.5q0 29 -14.5 44.5t-42.5 15.5t-42.5 -15.5z" />
    <glyph glyph-name="Aringacute" unicode="&#x1fa;" horiz-adv-x="559" 
d="M193 913l-10 22l178 89l18 -35zM216.5 873.5q24.5 23.5 63.5 23.5t63.5 -23.5t24.5 -62.5q0 -38 -24.5 -61.5t-63.5 -23.5t-63.5 23.5t-24.5 61.5q0 39 24.5 62.5zM322.5 855.5q-14.5 15.5 -42.5 15.5t-42.5 -15.5t-14.5 -44.5q0 -28 14.5 -43.5t42.5 -15.5q27 0 42 15.5
t15 43.5q0 29 -14.5 44.5zM432 197h-307l-66 -197h-35l234 682h43l234 -682h-37zM421 229l-142 425l-143 -425h285z" />
    <glyph glyph-name="uni023A" unicode="&#x23a;" horiz-adv-x="559" 
d="M432 197h-166l-70 -267l-24 6l68 261h-115l-66 -197h-35l234 682h43l38 -110l44 169l24 -7l-54 -203l182 -531h-37zM249 229l76 290l-46 136l-143 -426h113zM421 229l-82 247l-65 -247h147z" />
    <glyph glyph-name="Atilde" unicode="&#xc3;" horiz-adv-x="559" 
d="M432 197h-307l-66 -197h-35l234 682h43l234 -682h-37zM421 229l-142 425l-143 -425h285zM305 806.5q-16 6.5 -37 18.5q-3 1 -13 7t-18.5 8.5t-15.5 2.5q-17 0 -30.5 -8t-28.5 -28l-21 12q33 54 80 54q12 0 23.5 -4.5t22 -9.5t13.5 -7q18 -11 32 -16.5t27 -5.5
q16 0 29 9.5t29 33.5l21 -12q-31 -61 -79 -61q-18 0 -34 6.5z" />
    <glyph glyph-name="AE" unicode="&#xc6;" horiz-adv-x="761" 
d="M720 32v-32h-256l-51 192h-297l-73 -192h-35l263 682h397l-5 -32h-335l73 -276h260v-31h-252l81 -311h230zM405 224l-112 430l-165 -430h277z" />
    <glyph glyph-name="AEacute" unicode="&#x1fc;" horiz-adv-x="761" 
d="M720 32v-32h-256l-51 192h-297l-73 -192h-35l263 682h397l-5 -32h-335l73 -276h260v-31h-252l81 -311h230zM405 224l-112 430l-165 -430h277zM542 837l-186 -76l-10 22l178 89z" />
    <glyph glyph-name="uni01E2" unicode="&#x1e2;" horiz-adv-x="761" 
d="M720 32v-32h-256l-51 192h-297l-73 -192h-35l263 682h397l-5 -32h-335l73 -276h260v-31h-252l81 -311h230zM405 224l-112 430l-165 -430h277zM335 808v32h218v-32h-218z" />
    <glyph glyph-name="B" unicode="B" horiz-adv-x="590" 
d="M487 314q44 -44 44 -128q0 -90 -59.5 -138t-168.5 -48h-184v682h145q112 0 172.5 -42.5t60.5 -126.5q0 -66 -32.5 -103.5t-90.5 -47.5q69 -4 113 -48zM154 650v-275h162q66 0 105.5 37t39.5 100q0 138 -193 138h-114zM445 70.5q50 38.5 50 115.5q0 79 -47.5 119
t-126.5 40h-167v-313h150q91 0 141 38.5z" />
    <glyph glyph-name="uni1E02" unicode="&#x1e02;" horiz-adv-x="590" 
d="M487 314q44 -44 44 -128q0 -90 -59.5 -138t-168.5 -48h-184v682h145q112 0 172.5 -42.5t60.5 -126.5q0 -66 -32.5 -103.5t-90.5 -47.5q69 -4 113 -48zM154 650v-275h162q66 0 105.5 37t39.5 100q0 138 -193 138h-114zM445 70.5q50 38.5 50 115.5q0 79 -47.5 119
t-126.5 40h-167v-313h150q91 0 141 38.5zM312.5 852q7.5 -8 7.5 -19q0 -12 -7.5 -20t-21.5 -8q-12 0 -20 8t-8 20q0 11 8 19t20 8q14 0 21.5 -8z" />
    <glyph glyph-name="uni1E04" unicode="&#x1e04;" horiz-adv-x="590" 
d="M487 314q44 -44 44 -128q0 -90 -59.5 -138t-168.5 -48h-184v682h145q112 0 172.5 -42.5t60.5 -126.5q0 -66 -32.5 -103.5t-90.5 -47.5q69 -4 113 -48zM154 650v-275h162q66 0 105.5 37t39.5 100q0 138 -193 138h-114zM445 70.5q50 38.5 50 115.5q0 79 -47.5 119
t-126.5 40h-167v-313h150q91 0 141 38.5zM288.5 -141q-7.5 8 -7.5 19t7.5 19t21.5 8q12 0 20 -8t8 -19t-8 -19t-20 -8q-14 0 -21.5 8z" />
    <glyph glyph-name="uni0181" unicode="&#x181;" horiz-adv-x="634" 
d="M530.5 314q44.5 -44 44.5 -128q0 -90 -59.5 -138t-168.5 -48h-185v651h-27q-41 0 -61.5 -20t-20.5 -52q0 -22 6 -37.5t18 -38.5l-26 -15q-16 26 -24 44.5t-8 46.5q0 47 31 75t89 28h24h145q112 0 172.5 -42.5t60.5 -126.5q0 -65 -32.5 -103t-90.5 -48q68 -4 112.5 -48z
M198 650v-275h162q66 0 105.5 37t39.5 100q0 138 -193 138h-114zM489 71q50 39 50 115q0 79 -47.5 119t-126.5 40h-167v-313h150q91 0 141 39z" />
    <glyph glyph-name="uni0181.ss02" horiz-adv-x="562" 
d="M448.5 359q60.5 -50 60.5 -147q0 -107 -62.5 -159.5t-170.5 -52.5h-157v682h326l-6 -32h-285v-241h123q111 0 171.5 -50zM422.5 75.5q49.5 43.5 49.5 136.5q0 84 -50 125t-142 41h-126v-346h130q89 0 138.5 43.5z" />
    <glyph glyph-name="uni0243" unicode="&#x243;" horiz-adv-x="587" 
d="M484 314q44 -44 44 -128q0 -90 -59.5 -138t-168.5 -48h-184v179h-91v31h91v472h145q113 0 173 -42.5t60 -126.5q0 -66 -32.5 -103.5t-90.5 -47.5q69 -4 113 -48zM151 650v-275h162q66 0 105.5 37t39.5 100q0 138 -193 138h-114zM442 70.5q50 38.5 50 115.5
q0 79 -47.5 119t-126.5 40h-167v-135h188v-31h-188v-147h150q91 0 141 38.5z" />
    <glyph glyph-name="uni0182" unicode="&#x182;" horiz-adv-x="562" 
d="M448.5 359q60.5 -50 60.5 -147q0 -107 -62.5 -159.5t-170.5 -52.5h-157v682h326l-6 -32h-285v-241h123q111 0 171.5 -50zM422.5 75.5q49.5 43.5 49.5 136.5q0 84 -50 125t-142 41h-126v-346h130q89 0 138.5 43.5z" />
    <glyph glyph-name="C" unicode="C" horiz-adv-x="543" 
d="M436.5 678q37.5 -15 73.5 -45l-19 -25q-37 28 -68.5 40t-75.5 12q-68 0 -121 -33.5t-84.5 -105t-31.5 -180.5q0 -103 30.5 -175t83.5 -107.5t119 -35.5q52 0 86 14.5t69 43.5l20 -25q-35 -31 -77.5 -48.5t-98.5 -17.5q-78 0 -138.5 40.5t-95 119.5t-34.5 191
q0 114 35.5 193.5t97 119t138.5 39.5q54 0 91.5 -15z" />
    <glyph glyph-name="Cacute" unicode="&#x106;" horiz-adv-x="543" 
d="M436.5 678q37.5 -15 73.5 -45l-19 -25q-37 28 -68.5 40t-75.5 12q-68 0 -121 -33.5t-84.5 -105t-31.5 -180.5q0 -103 30.5 -175t83.5 -107.5t119 -35.5q52 0 86 14.5t69 43.5l20 -25q-35 -31 -77.5 -48.5t-98.5 -17.5q-78 0 -138.5 40.5t-95 119.5t-34.5 191
q0 114 35.5 193.5t97 119t138.5 39.5q54 0 91.5 -15zM440 837l-186 -76l-10 22l178 89z" />
    <glyph glyph-name="Cacute.loclPLK" horiz-adv-x="543" 
d="M436.5 678q37.5 -15 73.5 -45l-19 -25q-37 28 -68.5 40t-75.5 12q-68 0 -121 -33.5t-84.5 -105t-31.5 -180.5q0 -103 30.5 -175t83.5 -107.5t119 -35.5q52 0 86 14.5t69 43.5l20 -25q-35 -31 -77.5 -48.5t-98.5 -17.5q-78 0 -138.5 40.5t-95 119.5t-34.5 191
q0 114 35.5 193.5t97 119t138.5 39.5q54 0 91.5 -15zM442 875l-111 -145l-20 13l100 153z" />
    <glyph glyph-name="Ccaron" unicode="&#x10c;" horiz-adv-x="543" 
d="M436.5 678q37.5 -15 73.5 -45l-19 -25q-37 28 -68.5 40t-75.5 12q-68 0 -121 -33.5t-84.5 -105t-31.5 -180.5q0 -103 30.5 -175t83.5 -107.5t119 -35.5q52 0 86 14.5t69 43.5l20 -25q-35 -31 -77.5 -48.5t-98.5 -17.5q-78 0 -138.5 40.5t-95 119.5t-34.5 191
q0 114 35.5 193.5t97 119t138.5 39.5q54 0 91.5 -15zM476 853l-124 -95h-19l-126 95l17 20l118 -80l118 80z" />
    <glyph glyph-name="Ccedilla" unicode="&#xc7;" horiz-adv-x="543" 
d="M438 -140q0 -36 -26.5 -57t-65.5 -21q-41 0 -72 20l14 25q22 -15 58 -15q26 0 42.5 12t16.5 36t-21 35t-68 12l5 84q-72 5 -128 47t-87.5 119.5t-31.5 183.5q0 114 35.5 193.5t97 119t138.5 39.5q54 0 91.5 -15t73.5 -45l-19 -25q-37 28 -68.5 40t-75.5 12
q-68 0 -121 -33.5t-84.5 -105t-31.5 -180.5q0 -103 30.5 -175t83.5 -107.5t119 -35.5q52 0 86 14.5t69 43.5l20 -25q-72 -65 -171 -66v-60q91 -6 91 -70z" />
    <glyph glyph-name="Ccircumflex" unicode="&#x108;" horiz-adv-x="543" 
d="M436.5 678q37.5 -15 73.5 -45l-19 -25q-37 28 -68.5 40t-75.5 12q-68 0 -121 -33.5t-84.5 -105t-31.5 -180.5q0 -103 30.5 -175t83.5 -107.5t119 -35.5q52 0 86 14.5t69 43.5l20 -25q-35 -31 -77.5 -48.5t-98.5 -17.5q-78 0 -138.5 40.5t-95 119.5t-34.5 191
q0 114 35.5 193.5t97 119t138.5 39.5q54 0 91.5 -15zM342 844l-118 -79l-17 19l126 95h19l124 -95l-16 -19z" />
    <glyph glyph-name="Cdotaccent" unicode="&#x10a;" horiz-adv-x="543" 
d="M436.5 678q37.5 -15 73.5 -45l-19 -25q-37 28 -68.5 40t-75.5 12q-68 0 -121 -33.5t-84.5 -105t-31.5 -180.5q0 -103 30.5 -175t83.5 -107.5t119 -35.5q52 0 86 14.5t69 43.5l20 -25q-35 -31 -77.5 -48.5t-98.5 -17.5q-78 0 -138.5 40.5t-95 119.5t-34.5 191
q0 114 35.5 193.5t97 119t138.5 39.5q54 0 91.5 -15zM363.5 852q7.5 -8 7.5 -19q0 -12 -7.5 -20t-21.5 -8q-12 0 -20 8t-8 20q0 11 8 19t20 8q14 0 21.5 -8z" />
    <glyph glyph-name="uni0187" unicode="&#x187;" horiz-adv-x="543" 
d="M676 787l-16 -22q-18 12 -35.5 18t-41.5 6q-33 0 -53 -21t-20 -69v-66l-17 -22q-38 26 -70 37.5t-76 11.5q-68 0 -121 -33.5t-84.5 -105t-31.5 -180.5q0 -103 30.5 -175t83.5 -107.5t119 -35.5q52 0 86 14.5t69 43.5l20 -25q-35 -31 -77.5 -48.5t-98.5 -17.5
q-78 0 -138.5 40.5t-95 119.5t-34.5 191q0 114 35.5 193.5t97 119t138.5 39.5q76 0 131 -38v44q0 59 28.5 89.5t78.5 30.5q53 0 93 -32z" />
    <glyph glyph-name="uni023B" unicode="&#x23b;" horiz-adv-x="543" 
d="M440.5 7.5q-42.5 -17.5 -98.5 -17.5q-51 0 -95 18l-20 -78l-25 6l22 82q-70 38 -110 120t-40 203q0 114 35.5 193.5t97 119t138.5 39.5q27 0 55 -5l13 53l24 -7l-14 -52q45 -13 87 -49l-19 -25q-39 32 -76 43l-159 -610q41 -18 87 -18q52 0 86 14.5t69 43.5l20 -25
q-35 -31 -77.5 -48.5zM143 161q33 -73 90 -108l158 604q-19 3 -44 3q-68 0 -121 -33.5t-84.5 -105t-31.5 -180.5q0 -107 33 -180z" />
    <glyph glyph-name="D" unicode="D" horiz-adv-x="623" 
d="M466 610q84 -72 84 -262q0 -194 -86 -271t-211 -77h-134v682h130q133 0 217 -72zM154 650v-618h100q113 0 186 69.5t73 246.5q0 124 -37.5 190.5t-95 89t-133.5 22.5h-93z" />
    <glyph glyph-name="uni01F1" unicode="&#x1f1;" horiz-adv-x="1125" 
d="M466 610q84 -72 84 -262q0 -194 -86 -271t-211 -77h-134v682h130q133 0 217 -72zM154 650v-618h100q113 0 186 69.5t73 246.5q0 124 -37.5 190.5t-95 89t-133.5 22.5h-93zM1075 652l-381 -619h370l-5 -33h-407v31l383 619h-345v32h385v-30z" />
    <glyph glyph-name="uni01C4" unicode="&#x1c4;" horiz-adv-x="1125" 
d="M466 610q84 -72 84 -262q0 -194 -86 -271t-211 -77h-134v682h130q133 0 217 -72zM154 650v-618h100q113 0 186 69.5t73 246.5q0 124 -37.5 190.5t-95 89t-133.5 22.5h-93zM1075 652l-381 -619h370l-5 -33h-407v31l383 619h-345v32h385v-30zM1004 853l-124 -95h-19
l-126 95l17 20l118 -80l118 80z" />
    <glyph glyph-name="uni0189" unicode="&#x189;" horiz-adv-x="623" 
d="M466 610q84 -72 84 -262q0 -194 -86 -271t-211 -77h-134v336h-94v32h94v314h130q133 0 217 -72zM440 101.5q73 69.5 73 246.5q0 124 -37.5 190.5t-95 89t-133.5 22.5h-93v-282h188v-32h-188v-304h100q113 0 186 69.5z" />
    <glyph glyph-name="Eth" unicode="&#xd0;" horiz-adv-x="623" 
d="M466 610q84 -72 84 -262q0 -194 -86 -271t-211 -77h-134v336h-94v32h94v314h130q133 0 217 -72zM440 101.5q73 69.5 73 246.5q0 124 -37.5 190.5t-95 89t-133.5 22.5h-93v-282h188v-32h-188v-304h100q113 0 186 69.5z" />
    <glyph glyph-name="Dcaron" unicode="&#x10e;" horiz-adv-x="623" 
d="M466 610q84 -72 84 -262q0 -194 -86 -271t-211 -77h-134v682h130q133 0 217 -72zM154 650v-618h100q113 0 186 69.5t73 246.5q0 124 -37.5 190.5t-95 89t-133.5 22.5h-93zM431 853l-124 -95h-19l-126 95l17 20l118 -80l118 80z" />
    <glyph glyph-name="uni1E12" unicode="&#x1e12;" horiz-adv-x="623" 
d="M466 610q84 -72 84 -262q0 -194 -86 -271t-211 -77h-134v682h130q133 0 217 -72zM154 650v-618h100q113 0 186 69.5t73 246.5q0 124 -37.5 190.5t-95 89t-133.5 22.5h-93zM165 -172l125 101h19l125 -101l-16 -19l-119 85l-117 -85z" />
    <glyph glyph-name="Dcroat" unicode="&#x110;" horiz-adv-x="623" 
d="M466 610q84 -72 84 -262q0 -194 -86 -271t-211 -77h-134v336h-94v32h94v314h130q133 0 217 -72zM440 101.5q73 69.5 73 246.5q0 124 -37.5 190.5t-95 89t-133.5 22.5h-93v-282h188v-32h-188v-304h100q113 0 186 69.5z" />
    <glyph glyph-name="uni1E0A" unicode="&#x1e0a;" horiz-adv-x="623" 
d="M466 610q84 -72 84 -262q0 -194 -86 -271t-211 -77h-134v682h130q133 0 217 -72zM154 650v-618h100q113 0 186 69.5t73 246.5q0 124 -37.5 190.5t-95 89t-133.5 22.5h-93zM318.5 852q7.5 -8 7.5 -19q0 -12 -7.5 -20t-21.5 -8q-12 0 -20 8t-8 20q0 11 8 19t20 8
q14 0 21.5 -8z" />
    <glyph glyph-name="uni1E0C" unicode="&#x1e0c;" horiz-adv-x="623" 
d="M466 610q84 -72 84 -262q0 -194 -86 -271t-211 -77h-134v682h130q133 0 217 -72zM154 650v-618h100q113 0 186 69.5t73 246.5q0 124 -37.5 190.5t-95 89t-133.5 22.5h-93zM278.5 -141q-7.5 8 -7.5 19t7.5 19t21.5 8q12 0 20 -8t8 -19t-8 -19t-20 -8q-14 0 -21.5 8z" />
    <glyph glyph-name="uni018A" unicode="&#x18a;" horiz-adv-x="667" 
d="M509 610q84 -72 84 -262q0 -194 -86 -271t-210 -77h-135v651h-27q-41 0 -61.5 -20t-20.5 -52q0 -22 6 -37.5t18 -38.5l-26 -15q-16 26 -24 44.5t-8 46.5q0 47 31 75t89 28h24h129q133 0 217 -72zM484 101.5q73 69.5 73 246.5q0 124 -37.5 190.5t-95 89t-133.5 22.5h-93
v-618h100q113 0 186 69.5z" />
    <glyph glyph-name="uni1E0E" unicode="&#x1e0e;" horiz-adv-x="623" 
d="M466 610q84 -72 84 -262q0 -194 -86 -271t-211 -77h-134v682h130q133 0 217 -72zM154 650v-618h100q113 0 186 69.5t73 246.5q0 124 -37.5 190.5t-95 89t-133.5 22.5h-93zM191 -149v32h218v-32h-218z" />
    <glyph glyph-name="uni018B" unicode="&#x18b;" horiz-adv-x="562" 
d="M443 0h-167q-101 0 -162 50.5t-61 151.5q0 99 62 153t173 54h120v241h-288v32h323v-682zM408 32v346h-121q-95 0 -146 -45t-51 -131q0 -170 188 -170h130z" />
    <glyph glyph-name="uni01F2" unicode="&#x1f2;" horiz-adv-x="1035" 
d="M466 610q84 -72 84 -262q0 -194 -86 -271t-211 -77h-134v682h130q133 0 217 -72zM154 650v-618h100q113 0 186 69.5t73 246.5q0 124 -37.5 190.5t-95 89t-133.5 22.5h-93zM1000 493l-305 -462h299l-3 -31h-338v28l305 461h-280v31h322v-27z" />
    <glyph glyph-name="uni01C5" unicode="&#x1c5;" horiz-adv-x="1035" 
d="M466 610q84 -72 84 -262q0 -194 -86 -271t-211 -77h-134v682h130q133 0 217 -72zM154 650v-618h100q113 0 186 69.5t73 246.5q0 124 -37.5 190.5t-95 89t-133.5 22.5h-93zM1000 493l-305 -462h299l-3 -31h-338v28l305 461h-280v31h322v-27zM971 738l-124 -101h-19
l-126 101l17 20l118 -85l118 85z" />
    <glyph glyph-name="E" unicode="E" horiz-adv-x="496" 
d="M444 650h-290v-276h251v-31h-251v-311h301v-32h-336v682h330z" />
    <glyph glyph-name="Eacute" unicode="&#xc9;" horiz-adv-x="496" 
d="M444 650h-290v-276h251v-31h-251v-311h301v-32h-336v682h330zM386 837l-186 -76l-10 22l178 89z" />
    <glyph glyph-name="Ebreve" unicode="&#x114;" horiz-adv-x="496" 
d="M444 650h-290v-276h251v-31h-251v-311h301v-32h-336v682h330zM212 793.5q-32 24.5 -39 60.5l25 5q9 -26 32.5 -42t57.5 -16t58 16t33 42l25 -5q-7 -36 -39 -60.5t-77 -24.5q-44 0 -76 24.5z" />
    <glyph glyph-name="Ecaron" unicode="&#x11a;" horiz-adv-x="496" 
d="M444 650h-290v-276h251v-31h-251v-311h301v-32h-336v682h330zM422 853l-124 -95h-19l-126 95l17 20l118 -80l118 80z" />
    <glyph glyph-name="uni0228" unicode="&#x228;" horiz-adv-x="496" 
d="M289 0v-70q91 -6 91 -70q0 -36 -26.5 -57t-65.5 -21q-41 0 -72 20l14 25q22 -15 58 -15q26 0 42.5 12t16.5 36t-21 35t-68 12l6 93h-145v682h330l-5 -32h-290v-276h251v-31h-251v-311h301v-32h-166z" />
    <glyph glyph-name="Ecircumflex" unicode="&#xca;" horiz-adv-x="496" 
d="M444 650h-290v-276h251v-31h-251v-311h301v-32h-336v682h330zM288 844l-118 -79l-17 19l126 95h19l124 -95l-16 -19z" />
    <glyph glyph-name="uni1EBE" unicode="&#x1ebe;" horiz-adv-x="496" 
d="M501 944l-109 -115l-18 16l101 123zM288 815l-118 -79l-17 19l126 95h19l124 -95l-16 -19zM444 650h-290v-276h251v-31h-251v-311h301v-32h-336v682h330z" />
    <glyph glyph-name="uni1EC6" unicode="&#x1ec6;" horiz-adv-x="496" 
d="M444 650h-290v-276h251v-31h-251v-311h301v-32h-336v682h330zM288 844l-118 -79l-17 19l126 95h19l124 -95l-16 -19zM262.5 -141q-7.5 8 -7.5 19t7.5 19t21.5 8q12 0 20 -8t8 -19t-8 -19t-20 -8q-14 0 -21.5 8z" />
    <glyph glyph-name="uni1EC0" unicode="&#x1ec0;" horiz-adv-x="496" 
d="M209 845l-18 -16l-109 115l26 24zM288 815l-118 -79l-17 19l126 95h19l124 -95l-16 -19zM444 650h-290v-276h251v-31h-251v-311h301v-32h-336v682h330z" />
    <glyph glyph-name="uni1EC2" unicode="&#x1ec2;" horiz-adv-x="496" 
d="M383 875q68 2 68 50q0 20 -13 31.5t-36 11.5q-30 0 -58 -14l-12 24q33 19 72 19q38 0 60 -19.5t22 -51.5q0 -63 -70 -71v-45h-33v65zM288 815l-118 -79l-17 19l126 95h19l124 -95l-16 -19zM444 650h-290v-276h251v-31h-251v-311h301v-32h-336v682h330z" />
    <glyph glyph-name="uni1EC4" unicode="&#x1ec4;" horiz-adv-x="496" 
d="M313 901.5q-16 6.5 -37 18.5q-3 1 -13 7t-18.5 8.5t-15.5 2.5q-17 0 -30.5 -8t-28.5 -28l-21 12q33 54 80 54q13 0 26 -5t33 -16q21 -11 33.5 -16.5t25.5 -5.5q16 0 29 9.5t29 33.5l21 -12q-30 -61 -79 -61q-18 0 -34 6.5zM288 815l-118 -79l-17 19l126 95h19l124 -95
l-16 -19zM444 650h-290v-276h251v-31h-251v-311h301v-32h-336v682h330z" />
    <glyph glyph-name="uni0204" unicode="&#x204;" horiz-adv-x="496" 
d="M444 650h-290v-276h251v-31h-251v-311h301v-32h-336v682h330zM258 822l-24 -12l-84 131l34 17zM364 826l-24 -12l-76 126l34 18z" />
    <glyph glyph-name="Edieresis" unicode="&#xcb;" horiz-adv-x="496" 
d="M444 650h-290v-276h251v-31h-251v-311h301v-32h-336v682h330zM220 841.5q8 -7.5 8 -19.5q0 -11 -8 -19t-20 -8t-19.5 8t-7.5 19t7.5 19t19.5 8t20 -7.5zM395 841.5q8 -7.5 8 -19.5q0 -11 -8 -19t-20 -8q-13 0 -20.5 8t-7.5 19q0 12 7.5 19.5t20.5 7.5q12 0 20 -7.5z" />
    <glyph glyph-name="Edotaccent" unicode="&#x116;" horiz-adv-x="496" 
d="M444 650h-290v-276h251v-31h-251v-311h301v-32h-336v682h330zM309.5 852q7.5 -8 7.5 -19q0 -12 -7.5 -20t-21.5 -8q-12 0 -20 8t-8 20q0 11 8 19t20 8q14 0 21.5 -8z" />
    <glyph glyph-name="uni1EB8" unicode="&#x1eb8;" horiz-adv-x="496" 
d="M444 650h-290v-276h251v-31h-251v-311h301v-32h-336v682h330zM262.5 -141q-7.5 8 -7.5 19t7.5 19t21.5 8q12 0 20 -8t8 -19t-8 -19t-20 -8q-14 0 -21.5 8z" />
    <glyph glyph-name="Egrave" unicode="&#xc8;" horiz-adv-x="496" 
d="M444 650h-290v-276h251v-31h-251v-311h301v-32h-336v682h330zM385 783l-10 -22l-186 76l17 35z" />
    <glyph glyph-name="uni1EBA" unicode="&#x1eba;" horiz-adv-x="496" 
d="M444 650h-290v-276h251v-31h-251v-311h301v-32h-336v682h330zM270 847q68 2 68 50q0 20 -13 31.5t-36 11.5q-30 0 -58 -14l-12 24q33 19 72 19q38 0 60 -19.5t22 -51.5q0 -63 -70 -71v-45h-33v65z" />
    <glyph glyph-name="uni0206" unicode="&#x206;" horiz-adv-x="496" 
d="M444 650h-290v-276h251v-31h-251v-311h301v-32h-336v682h330zM365.5 865.5q31.5 -26.5 38.5 -68.5l-25 -5q-9 33 -32.5 50.5t-58.5 17.5t-58 -17.5t-32 -50.5l-25 5q7 42 38.5 68.5t76.5 26.5q46 0 77.5 -26.5z" />
    <glyph glyph-name="Emacron" unicode="&#x112;" horiz-adv-x="496" 
d="M444 650h-290v-276h251v-31h-251v-311h301v-32h-336v682h330zM179 808v32h218v-32h-218z" />
    <glyph glyph-name="Eogonek" unicode="&#x118;" horiz-adv-x="496" 
d="M336 -56q-28 -26 -28 -65q0 -25 16.5 -39.5t50.5 -14.5q24 0 56 6l-3 -33q-30 -6 -55 -6q-50 0 -75.5 23.5t-25.5 61.5t25.5 67.5t77.5 55.5h-256v682h330l-5 -32h-290v-276h251v-31h-251v-311h301v-32h-26q-65 -30 -93 -56z" />
    <glyph glyph-name="uni0190" unicode="&#x190;" horiz-adv-x="519" 
d="M377.5 672q47.5 -21 92.5 -63l-21 -22q-81 73 -176 73q-71 0 -114 -36.5t-43 -97.5q0 -68 45.5 -105t122.5 -37h56l-5 -32l-56 1q-88 1 -135.5 -40.5t-47.5 -118.5q0 -80 51 -126t134 -46q105 0 186 81l23 -21q-89 -92 -209 -92q-64 0 -114.5 24.5t-79 71t-28.5 109.5
q0 79 42.5 123.5t108.5 51.5q-60 13 -95 51.5t-35 103.5q0 76 52 122t140 46q58 0 105.5 -21z" />
    <glyph glyph-name="uni018E" unicode="&#x18e;" horiz-adv-x="496" 
d="M377 682v-682h-336v32h301v311h-251v31h251v276h-294v32h329z" />
    <glyph glyph-name="uni01A9" unicode="&#x1a9;" horiz-adv-x="487" 
d="M438 650h-339l224 -303v-15l-224 -300h339v-32h-389v20l237 319l-237 323v20h389v-32z" />
    <glyph glyph-name="uni0246" unicode="&#x246;" horiz-adv-x="496" 
d="M455 0h-240l-19 -70l-24 6l17 64h-70v682h249l15 59l24 -7l-14 -52h56l-5 -32h-59l-73 -276h93v-31h-101l-81 -311h232v-32zM154 374h133l72 276h-205v-276zM197 32l82 311h-125v-311h43z" />
    <glyph glyph-name="uni1EBC" unicode="&#x1ebc;" horiz-adv-x="496" 
d="M444 650h-290v-276h251v-31h-251v-311h301v-32h-336v682h330zM313 806.5q-16 6.5 -37 18.5q-3 1 -13 7t-18.5 8.5t-15.5 2.5q-17 0 -30.5 -8t-28.5 -28l-21 12q33 54 80 54q12 0 23.5 -4.5t22 -9.5t13.5 -7q18 -11 32 -16.5t27 -5.5q16 0 29 9.5t29 33.5l21 -12
q-31 -61 -79 -61q-18 0 -34 6.5z" />
    <glyph glyph-name="uni01B7" unicode="&#x1b7;" horiz-adv-x="478" 
d="M372.5 328q55.5 -50 55.5 -144q0 -56 -25 -100t-72.5 -69t-113.5 -25q-64 0 -111.5 21t-86.5 62l23 21q35 -38 76.5 -55t97.5 -17q85 0 130.5 44.5t45.5 116.5q0 164 -183 164h-81v31l230 273h-321v31h366v-29l-236 -275h42q108 0 163.5 -50z" />
    <glyph glyph-name="uni01EE" unicode="&#x1ee;" horiz-adv-x="478" 
d="M372.5 328q55.5 -50 55.5 -144q0 -56 -25 -100t-72.5 -69t-113.5 -25q-64 0 -111.5 21t-86.5 62l23 21q35 -38 76.5 -55t97.5 -17q85 0 130.5 44.5t45.5 116.5q0 164 -183 164h-81v31l230 273h-321v31h366v-29l-236 -275h42q108 0 163.5 -50zM354 853l-124 -95h-19
l-126 95l17 20l118 -80l118 80z" />
    <glyph glyph-name="uni01B8" unicode="&#x1b8;" horiz-adv-x="478" 
d="M458 73q-42 -42 -89 -62.5t-118 -20.5q-92 0 -146.5 51.5t-54.5 137.5q0 94 57 146.5t162 52.5h41l-235 275v29h365v-31h-320l230 -272v-32h-82q-87 0 -135 -42t-48 -127q0 -73 44 -114.5t123 -41.5q62 0 104 16.5t80 55.5z" />
    <glyph glyph-name="F" unicode="F" horiz-adv-x="473" 
d="M439 650h-285v-290h246v-31h-246v-329h-35v682h325z" />
    <glyph glyph-name="uni1E1E" unicode="&#x1e1e;" horiz-adv-x="473" 
d="M439 650h-285v-290h246v-31h-246v-329h-35v682h325zM312.5 852q7.5 -8 7.5 -19q0 -12 -7.5 -20t-21.5 -8q-12 0 -20 8t-8 20q0 11 8 19t20 8q14 0 21.5 -8z" />
    <glyph glyph-name="uni0191" unicode="&#x191;" horiz-adv-x="473" 
d="M154 650v-290h246v-31h-246v-409q0 -59 -29.5 -89.5t-77.5 -30.5q-51 0 -93 32l17 23q17 -11 34.5 -17.5t41.5 -6.5q32 0 52 21t20 69v761h325l-5 -32h-285z" />
    <glyph glyph-name="G" unicode="G" horiz-adv-x="609" 
d="M442.5 678q40.5 -15 82.5 -47l-21 -24q-36 28 -72.5 40.5t-83.5 12.5q-61 0 -115 -33t-88.5 -104t-34.5 -178q0 -159 65 -241t177 -82q46 0 81.5 9.5t71.5 29.5v267h-142l-4 32h181v-318q-87 -52 -188 -52q-83 0 -145.5 40t-97.5 120t-35 195q0 113 39 191.5t102 117.5
t133 39q54 0 94.5 -15z" />
    <glyph glyph-name="uni01F4" unicode="&#x1f4;" horiz-adv-x="609" 
d="M442.5 678q40.5 -15 82.5 -47l-21 -24q-36 28 -72.5 40.5t-83.5 12.5q-61 0 -115 -33t-88.5 -104t-34.5 -178q0 -159 65 -241t177 -82q46 0 81.5 9.5t71.5 29.5v267h-142l-4 32h181v-318q-87 -52 -188 -52q-83 0 -145.5 40t-97.5 120t-35 195q0 113 39 191.5t102 117.5
t133 39q54 0 94.5 -15zM447 837l-186 -76l-10 22l178 89z" />
    <glyph glyph-name="uni0194" unicode="&#x194;" horiz-adv-x="539" 
d="M291 53q33 -75 44.5 -108t11.5 -65q0 -36 -20.5 -58t-56.5 -22t-57 22t-21 58q0 28 10 59t35 88l11 26l-224 629h37l209 -602l208 602h37zM304 -62q-9 29 -34 90q-25 -60 -34.5 -89t-9.5 -58q0 -24 11.5 -37t32.5 -13t32 13t11 37q0 28 -9 57z" />
    <glyph glyph-name="Gbreve" unicode="&#x11e;" horiz-adv-x="609" 
d="M442.5 678q40.5 -15 82.5 -47l-21 -24q-36 28 -72.5 40.5t-83.5 12.5q-61 0 -115 -33t-88.5 -104t-34.5 -178q0 -159 65 -241t177 -82q46 0 81.5 9.5t71.5 29.5v267h-142l-4 32h181v-318q-87 -52 -188 -52q-83 0 -145.5 40t-97.5 120t-35 195q0 113 39 191.5t102 117.5
t133 39q54 0 94.5 -15zM273 793.5q-32 24.5 -39 60.5l25 5q9 -26 32.5 -42t57.5 -16t58 16t33 42l25 -5q-7 -36 -39 -60.5t-77 -24.5q-44 0 -76 24.5z" />
    <glyph glyph-name="Gcaron" unicode="&#x1e6;" horiz-adv-x="609" 
d="M442.5 678q40.5 -15 82.5 -47l-21 -24q-36 28 -72.5 40.5t-83.5 12.5q-61 0 -115 -33t-88.5 -104t-34.5 -178q0 -159 65 -241t177 -82q46 0 81.5 9.5t71.5 29.5v267h-142l-4 32h181v-318q-87 -52 -188 -52q-83 0 -145.5 40t-97.5 120t-35 195q0 113 39 191.5t102 117.5
t133 39q54 0 94.5 -15zM483 853l-124 -95h-19l-126 95l17 20l118 -80l118 80z" />
    <glyph glyph-name="Gcircumflex" unicode="&#x11c;" horiz-adv-x="609" 
d="M442.5 678q40.5 -15 82.5 -47l-21 -24q-36 28 -72.5 40.5t-83.5 12.5q-61 0 -115 -33t-88.5 -104t-34.5 -178q0 -159 65 -241t177 -82q46 0 81.5 9.5t71.5 29.5v267h-142l-4 32h181v-318q-87 -52 -188 -52q-83 0 -145.5 40t-97.5 120t-35 195q0 113 39 191.5t102 117.5
t133 39q54 0 94.5 -15zM349 844l-118 -79l-17 19l126 95h19l124 -95l-16 -19z" />
    <glyph glyph-name="Gcommaaccent" unicode="&#x122;" horiz-adv-x="609" 
d="M442.5 678q40.5 -15 82.5 -47l-21 -24q-36 28 -72.5 40.5t-83.5 12.5q-61 0 -115 -33t-88.5 -104t-34.5 -178q0 -159 65 -241t177 -82q46 0 81.5 9.5t71.5 29.5v267h-142l-4 32h181v-318q-87 -52 -188 -52q-83 0 -145.5 40t-97.5 120t-35 195q0 113 39 191.5t102 117.5
t133 39q54 0 94.5 -15zM360 -99.5q9 -9.5 9 -23.5q0 -11 -5 -24.5t-14 -33.5l-39 -86h-24l34 113q-20 9 -20 31q0 14 9.5 23.5t24.5 9.5q16 0 25 -9.5z" />
    <glyph glyph-name="Gdotaccent" unicode="&#x120;" horiz-adv-x="609" 
d="M442.5 678q40.5 -15 82.5 -47l-21 -24q-36 28 -72.5 40.5t-83.5 12.5q-61 0 -115 -33t-88.5 -104t-34.5 -178q0 -159 65 -241t177 -82q46 0 81.5 9.5t71.5 29.5v267h-142l-4 32h181v-318q-87 -52 -188 -52q-83 0 -145.5 40t-97.5 120t-35 195q0 113 39 191.5t102 117.5
t133 39q54 0 94.5 -15zM370.5 852q7.5 -8 7.5 -19q0 -12 -7.5 -20t-21.5 -8q-12 0 -20 8t-8 20q0 11 8 19t20 8q14 0 21.5 -8z" />
    <glyph glyph-name="uni0193" unicode="&#x193;" horiz-adv-x="558" 
d="M691 787l-16 -22q-19 12 -36 18t-41 6q-33 0 -53 -21t-20 -69v-68l-18 -21q-38 26 -75 38t-84 12q-61 0 -115 -33t-88.5 -104t-34.5 -178q0 -159 65 -241t177 -82q46 0 81.5 9.5t71.5 29.5v267h-142l-4 32h181v-318q-87 -52 -188 -52q-83 0 -145.5 40t-97.5 120t-35 195
q0 113 39 191.5t102 117.5t133 39q43 0 77.5 -9.5t65.5 -29.5v45q0 59 28.5 89.5t78.5 30.5q53 0 93 -32z" />
    <glyph glyph-name="uni0241" unicode="&#x241;" horiz-adv-x="458" 
d="M162 295l73 18q73 18 110 58t37 121q0 76 -44 122t-121 46q-50 0 -93 -18.5t-83 -54.5l-22 22q46 43 93.5 63.5t105.5 20.5q61 0 106.5 -26t70 -71.5t24.5 -103.5q0 -98 -47.5 -144.5t-130.5 -65.5l-44 -11v-271h-35v295z" />
    <glyph glyph-name="uni01E4" unicode="&#x1e4;" horiz-adv-x="624" 
d="M614 206h-74v-164q-87 -52 -188 -52q-83 0 -145.5 40t-97.5 120t-35 195q0 113 39 191.5t102 117.5t133 39q54 0 94.5 -15t82.5 -47l-21 -24q-36 28 -72.5 40.5t-83.5 12.5q-61 0 -115 -33t-88.5 -104t-34.5 -178q0 -159 65 -241t177 -82q46 0 81.5 9.5t71.5 29.5v145
h-142v32h142v90h-142l-4 32h181v-122h74v-32z" />
    <glyph glyph-name="H" unicode="H" horiz-adv-x="663" 
d="M509 344h-355v-344h-35v682h35v-306h355v306h35v-682h-35v344z" />
    <glyph glyph-name="Hbar" unicode="&#x126;" horiz-adv-x="664" 
d="M608 517h-63v-517h-35v344h-356v-344h-35v517h-63v27h63v138h35v-138h356v138h35v-138h63v-27zM510 517h-356v-141h356v141z" />
    <glyph glyph-name="uni021E" unicode="&#x21e;" horiz-adv-x="663" 
d="M509 344h-355v-344h-35v682h35v-306h355v306h35v-682h-35v344zM464 853l-124 -95h-19l-126 95l17 20l118 -80l118 80z" />
    <glyph glyph-name="Hcircumflex" unicode="&#x124;" horiz-adv-x="663" 
d="M509 344h-355v-344h-35v682h35v-306h355v306h35v-682h-35v344zM330 844l-118 -79l-17 19l126 95h19l124 -95l-16 -19z" />
    <glyph glyph-name="uni1E24" unicode="&#x1e24;" horiz-adv-x="663" 
d="M509 344h-355v-344h-35v682h35v-306h355v306h35v-682h-35v344zM310.5 -141q-7.5 8 -7.5 19t7.5 19t21.5 8q12 0 20 -8t8 -19t-8 -19t-20 -8q-14 0 -21.5 8z" />
    <glyph glyph-name="uniA7AA" unicode="&#xa7aa;" horiz-adv-x="708" 
d="M589 682v-682h-35v344h-356v-344h-35v651h-28q-41 0 -61.5 -20t-20.5 -52q0 -22 6 -37.5t18 -38.5l-26 -15q-16 26 -24 44.5t-8 46.5q0 47 31 75t89 28h24h35v-306h356v306h35z" />
    <glyph glyph-name="uniA78D" unicode="&#xa78d;" horiz-adv-x="581" 
d="M462 682v-682h-35v308q-79 -81 -188 -81q-85 0 -137.5 50.5t-52.5 138.5v266h35v-264q0 -75 43 -116.5t117 -41.5q56 0 104 23.5t79 63.5v335h35z" />
    <glyph glyph-name="uniA78D.ss02" horiz-adv-x="575" 
d="M421 265h-362v417h35v-385h327v385h35v-682h-35v265z" />
    <glyph glyph-name="uni01F6" unicode="&#x1f6;" horiz-adv-x="961" 
d="M872 264q0 -92 -26.5 -153.5t-71.5 -91t-101 -29.5q-72 0 -118 43t-46 123v188h-355v-344h-35v682h35v-306h355v306h35v-524q0 -69 35.5 -103t93.5 -34q69 0 116.5 57.5t47.5 186.5q0 101 -26 255h35q26 -152 26 -256z" />
    <glyph glyph-name="I" unicode="I" horiz-adv-x="273" 
d="M154 0h-35v682h35v-682z" />
    <glyph glyph-name="IJ" unicode="&#x132;" horiz-adv-x="553" 
d="M154 0h-35v682h35v-682zM441 89q0 -55 -11.5 -88t-41 -57.5t-86.5 -49.5l-10 26q47 22 71 43.5t33.5 50.5t9.5 77v591h35v-593z" />
    <glyph glyph-name="Iacute" unicode="&#xcd;" horiz-adv-x="273" 
d="M154 0h-35v682h35v-682zM233 837l-186 -76l-10 22l178 89z" />
    <glyph glyph-name="Ibreve" unicode="&#x12c;" horiz-adv-x="273" 
d="M154 0h-35v682h35v-682zM59 793.5q-32 24.5 -39 60.5l25 5q9 -26 32.5 -42t57.5 -16t58 16t33 42l25 -5q-7 -36 -39 -60.5t-77 -24.5q-44 0 -76 24.5z" />
    <glyph glyph-name="uni01CF" unicode="&#x1cf;" horiz-adv-x="273" 
d="M154 0h-35v682h35v-682zM270 853l-124 -95h-19l-126 95l17 20l118 -80l118 80z" />
    <glyph glyph-name="Icircumflex" unicode="&#xce;" horiz-adv-x="273" 
d="M154 0h-35v682h35v-682zM136 844l-118 -79l-17 19l126 95h19l124 -95l-16 -19z" />
    <glyph glyph-name="uni0208" unicode="&#x208;" horiz-adv-x="273" 
d="M154 0h-35v682h35v-682zM106 822l-24 -12l-84 131l34 17zM212 826l-24 -12l-76 126l34 18z" />
    <glyph glyph-name="Idieresis" unicode="&#xcf;" horiz-adv-x="273" 
d="M154 0h-35v682h35v-682zM67 841.5q8 -7.5 8 -19.5q0 -11 -8 -19t-20 -8t-19.5 8t-7.5 19t7.5 19t19.5 8t20 -7.5zM242 841.5q8 -7.5 8 -19.5q0 -11 -8 -19t-20 -8q-13 0 -20.5 8t-7.5 19q0 12 7.5 19.5t20.5 7.5q12 0 20 -7.5z" />
    <glyph glyph-name="uni1E2E" unicode="&#x1e2e;" horiz-adv-x="273" 
d="M237 916l-109 -115l-18 16l101 123zM67.5 788.5q7.5 -7.5 7.5 -19.5q0 -11 -7.5 -19t-20.5 -8q-12 0 -19.5 8t-7.5 19t7.5 19t19.5 8q13 0 20.5 -7.5zM242.5 788.5q7.5 -7.5 7.5 -19.5q0 -11 -7.5 -19t-20.5 -8q-12 0 -20 8t-8 19q0 12 8 19.5t20 7.5q13 0 20.5 -7.5z
M154 0h-35v682h35v-682z" />
    <glyph glyph-name="Idotaccent" unicode="&#x130;" horiz-adv-x="273" 
d="M154 0h-35v682h35v-682zM156.5 852q7.5 -8 7.5 -19q0 -12 -7.5 -20t-21.5 -8q-12 0 -20 8t-8 20q0 11 8 19t20 8q14 0 21.5 -8z" />
    <glyph glyph-name="uni1ECA" unicode="&#x1eca;" horiz-adv-x="273" 
d="M154 0h-35v682h35v-682zM115.5 -141q-7.5 8 -7.5 19t7.5 19t21.5 8q12 0 20 -8t8 -19t-8 -19t-20 -8q-14 0 -21.5 8z" />
    <glyph glyph-name="Igrave" unicode="&#xcc;" horiz-adv-x="273" 
d="M154 0h-35v682h35v-682zM233 783l-10 -22l-186 76l17 35z" />
    <glyph glyph-name="uni1EC8" unicode="&#x1ec8;" horiz-adv-x="273" 
d="M154 0h-35v682h35v-682zM117 847q68 2 68 50q0 20 -13 31.5t-36 11.5q-30 0 -58 -14l-12 24q33 19 72 19q38 0 60 -19.5t22 -51.5q0 -63 -70 -71v-45h-33v65z" />
    <glyph glyph-name="uni020A" unicode="&#x20a;" horiz-adv-x="273" 
d="M154 0h-35v682h35v-682zM212.5 865.5q31.5 -26.5 38.5 -68.5l-25 -5q-9 33 -32.5 50.5t-58.5 17.5t-58 -17.5t-32 -50.5l-25 5q7 42 38.5 68.5t76.5 26.5q46 0 77.5 -26.5z" />
    <glyph glyph-name="Imacron" unicode="&#x12a;" horiz-adv-x="273" 
d="M154 0h-35v682h35v-682zM27 808v32h218v-32h-218z" />
    <glyph glyph-name="Iogonek" unicode="&#x12e;" horiz-adv-x="273" 
d="M156 -169l-3 -33q-30 -6 -55 -6q-50 0 -75.5 23.5t-25.5 61.5q0 42 30 73t92 59v673h35v-682q-65 -30 -93 -56t-28 -65q0 -25 16.5 -39.5t50.5 -14.5q25 0 56 6z" />
    <glyph glyph-name="uni0196" unicode="&#x196;" horiz-adv-x="328" 
d="M308 21q-41 -31 -92 -31q-48 0 -77.5 30.5t-29.5 88.5v573h35v-571q0 -48 20 -69t52 -21q24 0 41.5 6.5t34.5 17.5z" />
    <glyph glyph-name="uni0197" unicode="&#x197;" horiz-adv-x="319" 
d="M285 344h-108v-344h-35v344h-108v32h108v306h35v-306h108v-32z" />
    <glyph glyph-name="Itilde" unicode="&#x128;" horiz-adv-x="273" 
d="M154 0h-35v682h35v-682zM161 806.5q-16 6.5 -37 18.5q-3 1 -13 7t-18.5 8.5t-15.5 2.5q-17 0 -30.5 -8t-28.5 -28l-21 12q33 54 80 54q12 0 23.5 -4.5t22 -9.5t13.5 -7q18 -11 32 -16.5t27 -5.5q16 0 29 9.5t29 33.5l21 -12q-31 -61 -79 -61q-18 0 -34 6.5z" />
    <glyph glyph-name="J" unicode="J" horiz-adv-x="281" 
d="M168 89q0 -55 -11.5 -88t-41 -57.5t-86.5 -49.5l-10 26q47 22 71 43.5t33.5 50.5t9.5 77v591h35v-593z" />
    <glyph glyph-name="Jcircumflex" unicode="&#x134;" horiz-adv-x="281" 
d="M168 89q0 -55 -11.5 -88t-41 -57.5t-86.5 -49.5l-10 26q47 22 71 43.5t33.5 50.5t9.5 77v591h35v-593zM148 844l-118 -79l-17 19l126 95h19l124 -95l-16 -19z" />
    <glyph glyph-name="uni0248" unicode="&#x248;" horiz-adv-x="293" 
d="M274 327h-106v-238q0 -55 -11.5 -88t-41 -57.5t-86.5 -49.5l-10 26q47 22 71 43.5t33.5 50.5t9.5 77v236h-110v32h110v323h35v-323h106v-32z" />
    <glyph glyph-name="K" unicode="K" horiz-adv-x="518" 
d="M154 0h-35v682h35v-682zM201 367l317 -367h-43l-318 367l303 315h42z" />
    <glyph glyph-name="uni01E8" unicode="&#x1e8;" horiz-adv-x="518" 
d="M154 0h-35v682h35v-682zM201 367l317 -367h-43l-318 367l303 315h42zM426 853l-124 -95h-19l-126 95l17 20l118 -80l118 80z" />
    <glyph glyph-name="Kcommaaccent" unicode="&#x136;" horiz-adv-x="518" 
d="M154 0h-35v682h35v-682zM201 367l317 -367h-43l-318 367l303 315h42zM324 -99.5q9 -9.5 9 -23.5q0 -11 -5 -24.5t-14 -33.5l-39 -86h-24l34 113q-20 9 -20 31q0 14 9.5 23.5t24.5 9.5q16 0 25 -9.5z" />
    <glyph glyph-name="uni0198" unicode="&#x198;" horiz-adv-x="550" 
d="M201 367l317 -367h-43l-318 367l189 252q31 43 56.5 58.5t62.5 15.5q45 0 85 -38l-18 -21q-32 27 -67 27q-27 0 -46.5 -11t-49.5 -52zM154 0h-35v682h35v-682z" />
    <glyph glyph-name="L" unicode="L" horiz-adv-x="462" 
d="M154 33h288l-6 -33h-317v682h35v-649z" />
    <glyph glyph-name="uni01C7" unicode="&#x1c7;" horiz-adv-x="743" 
d="M154 33h288l-6 -33h-317v682h35v-649zM630 89q0 -55 -11.5 -88t-41 -57.5t-86.5 -49.5l-10 26q47 22 71 43.5t33.5 50.5t9.5 77v591h35v-593z" />
    <glyph glyph-name="Lacute" unicode="&#x139;" horiz-adv-x="462" 
d="M154 33h288l-6 -33h-317v682h35v-649zM234 837l-186 -76l-10 22l178 89z" />
    <glyph glyph-name="uni023D" unicode="&#x23d;" horiz-adv-x="485" 
d="M465 33l-6 -33h-317v347h-108v32h108v303h35v-303h108v-32h-108v-314h288z" />
    <glyph glyph-name="Lcaron" unicode="&#x13d;" horiz-adv-x="462" 
d="M154 33h288l-6 -33h-317v682h35v-649zM278 682l-31 -150l-23 3l18 151z" />
    <glyph glyph-name="uni1E3C" unicode="&#x1e3c;" horiz-adv-x="462" 
d="M154 33h288l-6 -33h-317v682h35v-649zM146 -172l125 101h19l125 -101l-16 -19l-119 85l-117 -85z" />
    <glyph glyph-name="Lcommaaccent" unicode="&#x13b;" horiz-adv-x="462" 
d="M154 33h288l-6 -33h-317v682h35v-649zM304 -99.5q9 -9.5 9 -23.5q0 -11 -5 -24.5t-14 -33.5l-39 -86h-24l34 113q-20 9 -20 31q0 14 9.5 23.5t24.5 9.5q16 0 25 -9.5z" />
    <glyph glyph-name="Ldot" unicode="&#x13f;" horiz-adv-x="462" 
d="M154 33h288l-6 -33h-317v682h35v-649zM375.5 375q7.5 -8 7.5 -19q0 -12 -7.5 -20t-21.5 -8q-12 0 -20 8t-8 20q0 11 8 19t20 8q14 0 21.5 -8z" />
    <glyph glyph-name="uni1E36" unicode="&#x1e36;" horiz-adv-x="462" 
d="M154 33h288l-6 -33h-317v682h35v-649zM260.5 -141q-7.5 8 -7.5 19t7.5 19t21.5 8q12 0 20 -8t8 -19t-8 -19t-20 -8q-14 0 -21.5 8z" />
    <glyph glyph-name="uni01C8" unicode="&#x1c8;" horiz-adv-x="725" 
d="M154 33h288l-6 -33h-317v682h35v-649zM611 10q0 -65 -13 -102.5t-38 -59.5t-71 -45l-10 25q38 20 58 39.5t30 52.5t10 90v510h34v-510zM613.5 726q7.5 -8 7.5 -19q0 -12 -7.5 -20t-21.5 -8q-12 0 -20 8t-8 20q0 11 8 19t20 8q14 0 21.5 -8z" />
    <glyph glyph-name="Lslash" unicode="&#x141;" horiz-adv-x="469" 
d="M449 33l-6 -33h-318v298l-70 -43l-14 24l84 52v351h35v-329l196 123l15 -24l-211 -132v-287h289z" />
    <glyph glyph-name="M" unicode="M" horiz-adv-x="766" 
d="M691 0h-34l-37 340q-25 237 -31 311l-190 -568h-33l-194 568q-3 -43 -21 -213l-9 -90l-34 -348h-34l70 682h52l187 -557l183 557h53z" />
    <glyph glyph-name="uni1E3E" unicode="&#x1e3e;" horiz-adv-x="766" 
d="M691 0h-34l-37 340q-25 237 -31 311l-190 -568h-33l-194 568q-3 -43 -21 -213l-9 -90l-34 -348h-34l70 682h52l187 -557l183 557h53zM479 837l-186 -76l-10 22l178 89z" />
    <glyph glyph-name="uni1E40" unicode="&#x1e40;" horiz-adv-x="766" 
d="M691 0h-34l-37 340q-25 237 -31 311l-190 -568h-33l-194 568q-3 -43 -21 -213l-9 -90l-34 -348h-34l70 682h52l187 -557l183 557h53zM402.5 852q7.5 -8 7.5 -19q0 -12 -7.5 -20t-21.5 -8q-12 0 -20 8t-8 20q0 11 8 19t20 8q14 0 21.5 -8z" />
    <glyph glyph-name="uni019C" unicode="&#x19c;" horiz-adv-x="926" 
d="M807 682v-682h-31l-3 104q-30 -51 -76 -82.5t-103 -31.5q-58 0 -95 30.5t-51 88.5q-33 -54 -80 -86.5t-105 -32.5q-74 0 -114 49.5t-40 141.5v501h35v-506q0 -75 31 -114.5t90 -39.5q102 0 177 127q-2 20 -2 32v501h35v-506q0 -75 31.5 -114.5t89.5 -39.5q107 0 176 128
v532h35z" />
    <glyph glyph-name="N" unicode="N" horiz-adv-x="665" 
d="M547 0h-44l-355 643q5 -67 5 -213v-430h-34v682h44l354 -643q-4 78 -4 198v445h34v-682z" />
    <glyph glyph-name="uni01CA" unicode="&#x1ca;" horiz-adv-x="946" 
d="M547 0h-44l-355 643q5 -67 5 -213v-430h-34v682h44l354 -643q-4 78 -4 198v445h34v-682zM833 89q0 -55 -11.5 -88t-41 -57.5t-86.5 -49.5l-10 26q47 22 71 43.5t33.5 50.5t9.5 77v591h35v-593z" />
    <glyph glyph-name="Nacute" unicode="&#x143;" horiz-adv-x="665" 
d="M547 0h-44l-355 643q5 -67 5 -213v-430h-34v682h44l354 -643q-4 78 -4 198v445h34v-682zM437 837l-186 -76l-10 22l178 89z" />
    <glyph glyph-name="Nacute.loclPLK" horiz-adv-x="665" 
d="M547 0h-44l-355 643q5 -67 5 -213v-430h-34v682h44l354 -643q-4 78 -4 198v445h34v-682zM439 875l-111 -145l-20 13l100 153z" />
    <glyph glyph-name="Ncaron" unicode="&#x147;" horiz-adv-x="665" 
d="M547 0h-44l-355 643q5 -67 5 -213v-430h-34v682h44l354 -643q-4 78 -4 198v445h34v-682zM474 853l-124 -95h-19l-126 95l17 20l118 -80l118 80z" />
    <glyph glyph-name="uni1E4A" unicode="&#x1e4a;" horiz-adv-x="665" 
d="M547 0h-44l-355 643q5 -67 5 -213v-430h-34v682h44l354 -643q-4 78 -4 198v445h34v-682zM198 -172l125 101h19l125 -101l-16 -19l-119 85l-117 -85z" />
    <glyph glyph-name="Ncommaaccent" unicode="&#x145;" horiz-adv-x="665" 
d="M547 0h-44l-355 643q5 -67 5 -213v-430h-34v682h44l354 -643q-4 78 -4 198v445h34v-682zM356 -99.5q9 -9.5 9 -23.5q0 -11 -5 -24.5t-14 -33.5l-39 -86h-24l34 113q-20 9 -20 31q0 14 9.5 23.5t24.5 9.5q16 0 25 -9.5z" />
    <glyph glyph-name="uni1E44" unicode="&#x1e44;" horiz-adv-x="665" 
d="M547 0h-44l-355 643q5 -67 5 -213v-430h-34v682h44l354 -643q-4 78 -4 198v445h34v-682zM360.5 852q7.5 -8 7.5 -19q0 -12 -7.5 -20t-21.5 -8q-12 0 -20 8t-8 20q0 11 8 19t20 8q14 0 21.5 -8z" />
    <glyph glyph-name="uni1E46" unicode="&#x1e46;" horiz-adv-x="665" 
d="M547 0h-44l-355 643q5 -67 5 -213v-430h-34v682h44l354 -643q-4 78 -4 198v445h34v-682zM311.5 -141q-7.5 8 -7.5 19t7.5 19t21.5 8q12 0 20 -8t8 -19t-8 -19t-20 -8q-14 0 -21.5 8z" />
    <glyph glyph-name="uni01F8" unicode="&#x1f8;" horiz-adv-x="665" 
d="M547 0h-44l-355 643q5 -67 5 -213v-430h-34v682h44l354 -643q-4 78 -4 198v445h34v-682zM437 783l-10 -22l-186 76l17 35z" />
    <glyph glyph-name="Eng" unicode="&#x14a;" horiz-adv-x="665" 
d="M517.5 -169.5q-29.5 -30.5 -78.5 -30.5q-52 0 -92 32l16 23q18 -12 35 -18t41 -6q32 0 52 21t20 69v79h-8l-355 643q5 -67 5 -213v-430h-34v682h44l354 -643q-4 78 -4 198v445h34v-762q0 -59 -29.5 -89.5z" />
    <glyph glyph-name="Eng.ss01" horiz-adv-x="656" 
d="M545 -80q0 -59 -29.5 -89.5t-77.5 -30.5q-52 0 -92 32l16 23q17 -11 34.5 -17.5t41.5 -6.5q32 0 52 21t20 69v566q0 173 -141 173q-125 0 -215 -127v-533h-35v682h30l4 -107q39 53 94 85.5t125 32.5q83 0 128 -51.5t45 -148.5v-573z" />
    <glyph glyph-name="uni019D" unicode="&#x19d;" horiz-adv-x="665" 
d="M547 682v-682h-44l-355 643q5 -67 5 -213v-511q0 -58 -29.5 -88.5t-77.5 -30.5q-53 0 -93 32l16 22q18 -12 35 -18t41 -6q33 0 53.5 21t20.5 69v762h44l354 -643q-4 78 -4 198v445h34z" />
    <glyph glyph-name="uni019D.ss01" horiz-adv-x="656" 
d="M500 642q45 -51 45 -149v-493h-35v487q0 173 -141 173q-125 0 -215 -127v-613q0 -59 -29.5 -89.5t-77.5 -30.5q-51 0 -93 32l17 23q35 -24 75 -24q32 0 52.5 21t20.5 69v761h30l4 -107q39 53 94 85.5t125 32.5q83 0 128 -51z" />
    <glyph glyph-name="uni01CB" unicode="&#x1cb;" horiz-adv-x="927" 
d="M547 0h-44l-355 643q5 -67 5 -213v-430h-34v682h44l354 -643q-4 78 -4 198v445h34v-682zM814 10q0 -65 -13 -102.5t-38 -59.5t-71 -45l-10 25q38 20 58 39.5t30 52.5t10 90v510h34v-510zM816.5 726q7.5 -8 7.5 -19q0 -12 -7.5 -20t-21.5 -8q-12 0 -20 8t-8 20q0 11 8 19
t20 8q14 0 21.5 -8z" />
    <glyph glyph-name="uni0220" unicode="&#x220;" horiz-adv-x="656" 
d="M500 642q45 -51 45 -149v-687h-35v681q0 173 -141 173q-125 0 -215 -127v-533h-35v682h30l4 -107q39 53 94 85.5t125 32.5q83 0 128 -51z" />
    <glyph glyph-name="Ntilde" unicode="&#xd1;" horiz-adv-x="665" 
d="M547 0h-44l-355 643q5 -67 5 -213v-430h-34v682h44l354 -643q-4 78 -4 198v445h34v-682zM365 806.5q-16 6.5 -37 18.5q-3 1 -13 7t-18.5 8.5t-15.5 2.5q-17 0 -30.5 -8t-28.5 -28l-21 12q33 54 80 54q12 0 23.5 -4.5t22 -9.5t13.5 -7q18 -11 32 -16.5t27 -5.5
q16 0 29 9.5t29 33.5l21 -12q-31 -61 -79 -61q-18 0 -34 6.5z" />
    <glyph glyph-name="O" unicode="O" horiz-adv-x="690" 
d="M488 652.5q61 -40.5 94.5 -120t33.5 -192.5q0 -110 -33 -188.5t-94 -120t-144 -41.5q-81 0 -142 40.5t-95 119.5t-34 189q0 111 34 191t95.5 121.5t141.5 41.5q82 0 143 -40.5zM173.5 577.5q-63.5 -82.5 -63.5 -238.5q0 -102 29.5 -173.5t82.5 -107.5t123 -36
q111 0 173 81.5t62 236.5q0 157 -63 238.5t-172 81.5q-108 0 -171.5 -82.5z" />
    <glyph glyph-name="uni0222" unicode="&#x222;" horiz-adv-x="631" 
d="M521 315.5q37 -49.5 37 -122.5q0 -90 -61.5 -146.5t-180.5 -56.5q-117 0 -179.5 55.5t-62.5 146.5q0 71 37.5 121t109.5 71q-53 20 -76 64t-23 109v125h35v-124q0 -77 35 -118.5t124 -41.5q90 0 126.5 41.5t36.5 118.5v124h35v-125q0 -133 -103 -172q73 -20 110 -69.5z
M471 67.5q50 45.5 50 125.5q0 83 -50.5 127.5t-154.5 44.5q-103 0 -154.5 -45.5t-51.5 -127.5q0 -79 52 -124.5t154 -45.5q105 0 155 45.5z" />
    <glyph glyph-name="Oacute" unicode="&#xd3;" horiz-adv-x="690" 
d="M488 652.5q61 -40.5 94.5 -120t33.5 -192.5q0 -110 -33 -188.5t-94 -120t-144 -41.5q-81 0 -142 40.5t-95 119.5t-34 189q0 111 34 191t95.5 121.5t141.5 41.5q82 0 143 -40.5zM173.5 577.5q-63.5 -82.5 -63.5 -238.5q0 -102 29.5 -173.5t82.5 -107.5t123 -36
q111 0 173 81.5t62 236.5q0 157 -63 238.5t-172 81.5q-108 0 -171.5 -82.5zM443 837l-186 -76l-10 22l178 89z" />
    <glyph glyph-name="Oacute.loclPLK" horiz-adv-x="690" 
d="M488 652.5q61 -40.5 94.5 -120t33.5 -192.5q0 -110 -33 -188.5t-94 -120t-144 -41.5q-81 0 -142 40.5t-95 119.5t-34 189q0 111 34 191t95.5 121.5t141.5 41.5q82 0 143 -40.5zM173.5 577.5q-63.5 -82.5 -63.5 -238.5q0 -102 29.5 -173.5t82.5 -107.5t123 -36
q111 0 173 81.5t62 236.5q0 157 -63 238.5t-172 81.5q-108 0 -171.5 -82.5zM444 875l-111 -145l-20 13l100 153z" />
    <glyph glyph-name="Obreve" unicode="&#x14e;" horiz-adv-x="690" 
d="M488 652.5q61 -40.5 94.5 -120t33.5 -192.5q0 -110 -33 -188.5t-94 -120t-144 -41.5q-81 0 -142 40.5t-95 119.5t-34 189q0 111 34 191t95.5 121.5t141.5 41.5q82 0 143 -40.5zM173.5 577.5q-63.5 -82.5 -63.5 -238.5q0 -102 29.5 -173.5t82.5 -107.5t123 -36
q111 0 173 81.5t62 236.5q0 157 -63 238.5t-172 81.5q-108 0 -171.5 -82.5zM269 793.5q-32 24.5 -39 60.5l25 5q9 -26 32.5 -42t57.5 -16t58 16t33 42l25 -5q-7 -36 -39 -60.5t-77 -24.5q-44 0 -76 24.5z" />
    <glyph glyph-name="uni01D1" unicode="&#x1d1;" horiz-adv-x="690" 
d="M488 652.5q61 -40.5 94.5 -120t33.5 -192.5q0 -110 -33 -188.5t-94 -120t-144 -41.5q-81 0 -142 40.5t-95 119.5t-34 189q0 111 34 191t95.5 121.5t141.5 41.5q82 0 143 -40.5zM173.5 577.5q-63.5 -82.5 -63.5 -238.5q0 -102 29.5 -173.5t82.5 -107.5t123 -36
q111 0 173 81.5t62 236.5q0 157 -63 238.5t-172 81.5q-108 0 -171.5 -82.5zM479 853l-124 -95h-19l-126 95l17 20l118 -80l118 80z" />
    <glyph glyph-name="uni019F" unicode="&#x19f;" horiz-adv-x="690" 
d="M488 652.5q61 -40.5 94.5 -120.5t33.5 -194q0 -109 -33 -187.5t-94 -119.5t-144 -41q-81 0 -142 40.5t-95 119t-34 187.5q0 112 34 192t95.5 122t141.5 42q82 0 143 -40.5zM179 584.5q-63 -75.5 -69 -220.5h470q-6 146 -68 221t-167 75q-103 0 -166 -75.5zM517 102
q62 80 63 232h-470q0 -100 30 -170.5t83 -106t122 -35.5q110 0 172 80z" />
    <glyph glyph-name="Ocircumflex" unicode="&#xd4;" horiz-adv-x="690" 
d="M488 652.5q61 -40.5 94.5 -120t33.5 -192.5q0 -110 -33 -188.5t-94 -120t-144 -41.5q-81 0 -142 40.5t-95 119.5t-34 189q0 111 34 191t95.5 121.5t141.5 41.5q82 0 143 -40.5zM173.5 577.5q-63.5 -82.5 -63.5 -238.5q0 -102 29.5 -173.5t82.5 -107.5t123 -36
q111 0 173 81.5t62 236.5q0 157 -63 238.5t-172 81.5q-108 0 -171.5 -82.5zM345 844l-118 -79l-17 19l126 95h19l124 -95l-16 -19z" />
    <glyph glyph-name="uni1ED0" unicode="&#x1ed0;" horiz-adv-x="690" 
d="M558 944l-109 -115l-18 16l101 123zM345 815l-118 -79l-17 19l126 95h19l124 -95l-16 -19zM488 652.5q61 -40.5 94.5 -120t33.5 -192.5q0 -110 -33 -188.5t-94 -120t-144 -41.5q-81 0 -142 40.5t-95 119.5t-34 189q0 111 34 191t95.5 121.5t141.5 41.5q82 0 143 -40.5z
M173.5 577.5q-63.5 -82.5 -63.5 -238.5q0 -102 29.5 -173.5t82.5 -107.5t123 -36q111 0 173 81.5t62 236.5q0 157 -63 238.5t-172 81.5q-108 0 -171.5 -82.5z" />
    <glyph glyph-name="uni1ED8" unicode="&#x1ed8;" horiz-adv-x="690" 
d="M488 652.5q61 -40.5 94.5 -120t33.5 -192.5q0 -110 -33 -188.5t-94 -120t-144 -41.5q-81 0 -142 40.5t-95 119.5t-34 189q0 111 34 191t95.5 121.5t141.5 41.5q82 0 143 -40.5zM173.5 577.5q-63.5 -82.5 -63.5 -238.5q0 -102 29.5 -173.5t82.5 -107.5t123 -36
q111 0 173 81.5t62 236.5q0 157 -63 238.5t-172 81.5q-108 0 -171.5 -82.5zM345 844l-118 -79l-17 19l126 95h19l124 -95l-16 -19zM324.5 -141q-7.5 8 -7.5 19t7.5 19t21.5 8q12 0 20 -8t8 -19t-8 -19t-20 -8q-14 0 -21.5 8z" />
    <glyph glyph-name="uni1ED2" unicode="&#x1ed2;" horiz-adv-x="690" 
d="M266 845l-18 -16l-109 115l26 24zM345 815l-118 -79l-17 19l126 95h19l124 -95l-16 -19zM488 652.5q61 -40.5 94.5 -120t33.5 -192.5q0 -110 -33 -188.5t-94 -120t-144 -41.5q-81 0 -142 40.5t-95 119.5t-34 189q0 111 34 191t95.5 121.5t141.5 41.5q82 0 143 -40.5z
M173.5 577.5q-63.5 -82.5 -63.5 -238.5q0 -102 29.5 -173.5t82.5 -107.5t123 -36q111 0 173 81.5t62 236.5q0 157 -63 238.5t-172 81.5q-108 0 -171.5 -82.5z" />
    <glyph glyph-name="uni1ED4" unicode="&#x1ed4;" horiz-adv-x="690" 
d="M440 875q68 2 68 50q0 20 -13 31.5t-36 11.5q-30 0 -58 -14l-12 24q33 19 72 19q38 0 60 -19.5t22 -51.5q0 -63 -70 -71v-45h-33v65zM345 815l-118 -79l-17 19l126 95h19l124 -95l-16 -19zM488 652.5q61 -40.5 94.5 -120t33.5 -192.5q0 -110 -33 -188.5t-94 -120
t-144 -41.5q-81 0 -142 40.5t-95 119.5t-34 189q0 111 34 191t95.5 121.5t141.5 41.5q82 0 143 -40.5zM173.5 577.5q-63.5 -82.5 -63.5 -238.5q0 -102 29.5 -173.5t82.5 -107.5t123 -36q111 0 173 81.5t62 236.5q0 157 -63 238.5t-172 81.5q-108 0 -171.5 -82.5z" />
    <glyph glyph-name="uni1ED6" unicode="&#x1ed6;" horiz-adv-x="690" 
d="M370 901.5q-16 6.5 -37 18.5q-3 1 -13 7t-18.5 8.5t-15.5 2.5q-17 0 -30.5 -8t-28.5 -28l-21 12q33 54 80 54q13 0 26 -5t33 -16q21 -11 33.5 -16.5t25.5 -5.5q16 0 29 9.5t29 33.5l21 -12q-30 -61 -79 -61q-18 0 -34 6.5zM345 815l-118 -79l-17 19l126 95h19l124 -95
l-16 -19zM488 652.5q61 -40.5 94.5 -120t33.5 -192.5q0 -110 -33 -188.5t-94 -120t-144 -41.5q-81 0 -142 40.5t-95 119.5t-34 189q0 111 34 191t95.5 121.5t141.5 41.5q82 0 143 -40.5zM173.5 577.5q-63.5 -82.5 -63.5 -238.5q0 -102 29.5 -173.5t82.5 -107.5t123 -36
q111 0 173 81.5t62 236.5q0 157 -63 238.5t-172 81.5q-108 0 -171.5 -82.5z" />
    <glyph glyph-name="uni020C" unicode="&#x20c;" horiz-adv-x="690" 
d="M488 652.5q61 -40.5 94.5 -120t33.5 -192.5q0 -110 -33 -188.5t-94 -120t-144 -41.5q-81 0 -142 40.5t-95 119.5t-34 189q0 111 34 191t95.5 121.5t141.5 41.5q82 0 143 -40.5zM173.5 577.5q-63.5 -82.5 -63.5 -238.5q0 -102 29.5 -173.5t82.5 -107.5t123 -36
q111 0 173 81.5t62 236.5q0 157 -63 238.5t-172 81.5q-108 0 -171.5 -82.5zM315 822l-24 -12l-84 131l34 17zM421 826l-24 -12l-76 126l34 18z" />
    <glyph glyph-name="Odieresis" unicode="&#xd6;" horiz-adv-x="690" 
d="M488 652.5q61 -40.5 94.5 -120t33.5 -192.5q0 -110 -33 -188.5t-94 -120t-144 -41.5q-81 0 -142 40.5t-95 119.5t-34 189q0 111 34 191t95.5 121.5t141.5 41.5q82 0 143 -40.5zM173.5 577.5q-63.5 -82.5 -63.5 -238.5q0 -102 29.5 -173.5t82.5 -107.5t123 -36
q111 0 173 81.5t62 236.5q0 157 -63 238.5t-172 81.5q-108 0 -171.5 -82.5zM277 841.5q8 -7.5 8 -19.5q0 -11 -8 -19t-20 -8t-19.5 8t-7.5 19t7.5 19t19.5 8t20 -7.5zM452 841.5q8 -7.5 8 -19.5q0 -11 -8 -19t-20 -8q-13 0 -20.5 8t-7.5 19q0 12 7.5 19.5t20.5 7.5
q12 0 20 -7.5z" />
    <glyph glyph-name="uni022A" unicode="&#x22a;" horiz-adv-x="690" 
d="M238 860v32h218v-32h-218zM277.5 788.5q7.5 -7.5 7.5 -19.5q0 -11 -7.5 -19t-20.5 -8q-12 0 -19.5 8t-7.5 19t7.5 19t19.5 8q13 0 20.5 -7.5zM452.5 788.5q7.5 -7.5 7.5 -19.5q0 -11 -7.5 -19t-20.5 -8q-12 0 -20 8t-8 19q0 12 8 19.5t20 7.5q13 0 20.5 -7.5zM488 652.5
q61 -40.5 94.5 -120t33.5 -192.5q0 -110 -33 -188.5t-94 -120t-144 -41.5q-81 0 -142 40.5t-95 119.5t-34 189q0 111 34 191t95.5 121.5t141.5 41.5q82 0 143 -40.5zM173.5 577.5q-63.5 -82.5 -63.5 -238.5q0 -102 29.5 -173.5t82.5 -107.5t123 -36q111 0 173 81.5t62 236.5
q0 157 -63 238.5t-172 81.5q-108 0 -171.5 -82.5z" />
    <glyph glyph-name="uni022E" unicode="&#x22e;" horiz-adv-x="690" 
d="M488 652.5q61 -40.5 94.5 -120t33.5 -192.5q0 -110 -33 -188.5t-94 -120t-144 -41.5q-81 0 -142 40.5t-95 119.5t-34 189q0 111 34 191t95.5 121.5t141.5 41.5q82 0 143 -40.5zM173.5 577.5q-63.5 -82.5 -63.5 -238.5q0 -102 29.5 -173.5t82.5 -107.5t123 -36
q111 0 173 81.5t62 236.5q0 157 -63 238.5t-172 81.5q-108 0 -171.5 -82.5zM366.5 852q7.5 -8 7.5 -19q0 -12 -7.5 -20t-21.5 -8q-12 0 -20 8t-8 20q0 11 8 19t20 8q14 0 21.5 -8z" />
    <glyph glyph-name="uni0230" unicode="&#x230;" horiz-adv-x="690" 
d="M236 859v32h218v-32h-218zM365.5 790q7.5 -8 7.5 -19q0 -12 -7.5 -20t-21.5 -8q-12 0 -20 8t-8 20q0 11 8 19t20 8q14 0 21.5 -8zM488 652.5q61 -40.5 94.5 -120t33.5 -192.5q0 -110 -33 -188.5t-94 -120t-144 -41.5q-81 0 -142 40.5t-95 119.5t-34 189q0 111 34 191
t95.5 121.5t141.5 41.5q82 0 143 -40.5zM173.5 577.5q-63.5 -82.5 -63.5 -238.5q0 -102 29.5 -173.5t82.5 -107.5t123 -36q111 0 173 81.5t62 236.5q0 157 -63 238.5t-172 81.5q-108 0 -171.5 -82.5z" />
    <glyph glyph-name="uni1ECC" unicode="&#x1ecc;" horiz-adv-x="690" 
d="M488 652.5q61 -40.5 94.5 -120t33.5 -192.5q0 -110 -33 -188.5t-94 -120t-144 -41.5q-81 0 -142 40.5t-95 119.5t-34 189q0 111 34 191t95.5 121.5t141.5 41.5q82 0 143 -40.5zM173.5 577.5q-63.5 -82.5 -63.5 -238.5q0 -102 29.5 -173.5t82.5 -107.5t123 -36
q111 0 173 81.5t62 236.5q0 157 -63 238.5t-172 81.5q-108 0 -171.5 -82.5zM324.5 -141q-7.5 8 -7.5 19t7.5 19t21.5 8q12 0 20 -8t8 -19t-8 -19t-20 -8q-14 0 -21.5 8z" />
    <glyph glyph-name="Ograve" unicode="&#xd2;" horiz-adv-x="690" 
d="M488 652.5q61 -40.5 94.5 -120t33.5 -192.5q0 -110 -33 -188.5t-94 -120t-144 -41.5q-81 0 -142 40.5t-95 119.5t-34 189q0 111 34 191t95.5 121.5t141.5 41.5q82 0 143 -40.5zM173.5 577.5q-63.5 -82.5 -63.5 -238.5q0 -102 29.5 -173.5t82.5 -107.5t123 -36
q111 0 173 81.5t62 236.5q0 157 -63 238.5t-172 81.5q-108 0 -171.5 -82.5zM442 783l-10 -22l-186 76l17 35z" />
    <glyph glyph-name="uni1ECE" unicode="&#x1ece;" horiz-adv-x="690" 
d="M488 652.5q61 -40.5 94.5 -120t33.5 -192.5q0 -110 -33 -188.5t-94 -120t-144 -41.5q-81 0 -142 40.5t-95 119.5t-34 189q0 111 34 191t95.5 121.5t141.5 41.5q82 0 143 -40.5zM173.5 577.5q-63.5 -82.5 -63.5 -238.5q0 -102 29.5 -173.5t82.5 -107.5t123 -36
q111 0 173 81.5t62 236.5q0 157 -63 238.5t-172 81.5q-108 0 -171.5 -82.5zM327 847q68 2 68 50q0 20 -13 31.5t-36 11.5q-30 0 -58 -14l-12 24q33 19 72 19q38 0 60 -19.5t22 -51.5q0 -63 -70 -71v-45h-33v65z" />
    <glyph glyph-name="Ohorn" unicode="&#x1a0;" horiz-adv-x="690" 
d="M616 340q0 -110 -33 -188.5t-94 -120t-144 -41.5q-81 0 -142 40.5t-95 119.5t-34 189q0 111 34 191t95.5 121.5t141.5 41.5q107 0 177 -68q33 4 47 18.5t14 42.5q0 37 -14 72l27 9q18 -36 18 -81q0 -36 -19 -57t-54 -25q75 -92 75 -264zM518 103.5q62 81.5 62 236.5
q0 157 -63 238.5t-172 81.5q-108 0 -171.5 -82.5t-63.5 -238.5q0 -102 29.5 -173.5t82.5 -107.5t123 -36q111 0 173 81.5z" />
    <glyph glyph-name="uni1EDA" unicode="&#x1eda;" horiz-adv-x="690" 
d="M257 761l-10 22l178 89l18 -35zM616 340q0 -110 -33 -188.5t-94 -120t-144 -41.5q-81 0 -142 40.5t-95 119.5t-34 189q0 111 34 191t95.5 121.5t141.5 41.5q107 0 177 -68q33 4 47 18.5t14 42.5q0 37 -14 72l27 9q18 -36 18 -81q0 -36 -19 -57t-54 -25q75 -92 75 -264z
M518 103.5q62 81.5 62 236.5q0 157 -63 238.5t-172 81.5q-108 0 -171.5 -82.5t-63.5 -238.5q0 -102 29.5 -173.5t82.5 -107.5t123 -36q111 0 173 81.5z" />
    <glyph glyph-name="uni1EE2" unicode="&#x1ee2;" horiz-adv-x="690" 
d="M616 340q0 -110 -33 -188.5t-94 -120t-144 -41.5q-81 0 -142 40.5t-95 119.5t-34 189q0 111 34 191t95.5 121.5t141.5 41.5q107 0 177 -68q33 4 47 18.5t14 42.5q0 37 -14 72l27 9q18 -36 18 -81q0 -36 -19 -57t-54 -25q75 -92 75 -264zM518 103.5q62 81.5 62 236.5
q0 157 -63 238.5t-172 81.5q-108 0 -171.5 -82.5t-63.5 -238.5q0 -102 29.5 -173.5t82.5 -107.5t123 -36q111 0 173 81.5zM366 -103q8 -8 8 -19t-8 -19t-20 -8q-14 0 -21.5 8t-7.5 19t7.5 19t21.5 8q12 0 20 -8z" />
    <glyph glyph-name="uni1EDC" unicode="&#x1edc;" horiz-adv-x="690" 
d="M432 761l-186 76l17 35l179 -89zM616 340q0 -110 -33 -188.5t-94 -120t-144 -41.5q-81 0 -142 40.5t-95 119.5t-34 189q0 111 34 191t95.5 121.5t141.5 41.5q107 0 177 -68q33 4 47 18.5t14 42.5q0 37 -14 72l27 9q18 -36 18 -81q0 -36 -19 -57t-54 -25q75 -92 75 -264z
M518 103.5q62 81.5 62 236.5q0 157 -63 238.5t-172 81.5q-108 0 -171.5 -82.5t-63.5 -238.5q0 -102 29.5 -173.5t82.5 -107.5t123 -36q111 0 173 81.5z" />
    <glyph glyph-name="uni1EDE" unicode="&#x1ede;" horiz-adv-x="690" 
d="M288 926l-12 24q33 19 72 19q38 0 60 -19.5t22 -51.5q0 -63 -70 -71v-45h-33v65q68 2 68 50q0 20 -13 31.5t-36 11.5q-30 0 -58 -14zM616 340q0 -110 -33 -188.5t-94 -120t-144 -41.5q-81 0 -142 40.5t-95 119.5t-34 189q0 111 34 191t95.5 121.5t141.5 41.5
q107 0 177 -68q33 4 47 18.5t14 42.5q0 37 -14 72l27 9q18 -36 18 -81q0 -36 -19 -57t-54 -25q75 -92 75 -264zM518 103.5q62 81.5 62 236.5q0 157 -63 238.5t-172 81.5q-108 0 -171.5 -82.5t-63.5 -238.5q0 -102 29.5 -173.5t82.5 -107.5t123 -36q111 0 173 81.5z" />
    <glyph glyph-name="uni1EE0" unicode="&#x1ee0;" horiz-adv-x="690" 
d="M255.5 835q-13.5 -8 -28.5 -28l-21 12q33 54 80 54q13 0 26 -5t33 -16q21 -11 33.5 -16.5t25.5 -5.5q16 0 29 9.5t29 33.5l21 -12q-30 -61 -79 -61q-18 0 -34 6.5t-37 18.5q-3 1 -13 7t-18.5 8.5t-15.5 2.5q-17 0 -30.5 -8zM616 340q0 -110 -33 -188.5t-94 -120
t-144 -41.5q-81 0 -142 40.5t-95 119.5t-34 189q0 111 34 191t95.5 121.5t141.5 41.5q107 0 177 -68q33 4 47 18.5t14 42.5q0 37 -14 72l27 9q18 -36 18 -81q0 -36 -19 -57t-54 -25q75 -92 75 -264zM518 103.5q62 81.5 62 236.5q0 157 -63 238.5t-172 81.5
q-108 0 -171.5 -82.5t-63.5 -238.5q0 -102 29.5 -173.5t82.5 -107.5t123 -36q111 0 173 81.5z" />
    <glyph glyph-name="Ohungarumlaut" unicode="&#x150;" horiz-adv-x="690" 
d="M488 652.5q61 -40.5 94.5 -120t33.5 -192.5q0 -110 -33 -188.5t-94 -120t-144 -41.5q-81 0 -142 40.5t-95 119.5t-34 189q0 111 34 191t95.5 121.5t141.5 41.5q82 0 143 -40.5zM173.5 577.5q-63.5 -82.5 -63.5 -238.5q0 -102 29.5 -173.5t82.5 -107.5t123 -36
q111 0 173 81.5t62 236.5q0 157 -63 238.5t-172 81.5q-108 0 -171.5 -82.5zM370 904l-77 -126l-24 12l67 132zM483 905l-83 -131l-25 12l74 136z" />
    <glyph glyph-name="uni01A2" unicode="&#x1a2;" horiz-adv-x="887" 
d="M768 560v-754h-35v753q0 58 -23.5 81t-69.5 23q-33 0 -62 -9.5t-59 -26.5q47 -44 72 -117t25 -170q0 -110 -33 -188.5t-94 -120t-144 -41.5q-81 0 -142 40.5t-95 119.5t-34 189q0 111 34 191t95.5 121.5t141.5 41.5q87 0 151 -47q36 22 71 34.5t74 12.5q127 0 127 -133z
M517 578.5q-63 81.5 -172 81.5q-108 0 -171.5 -82.5t-63.5 -238.5q0 -102 29.5 -173.5t82.5 -107.5t123 -36q111 0 173 81.5t62 236.5q0 157 -63 238.5z" />
    <glyph glyph-name="uni020E" unicode="&#x20e;" horiz-adv-x="690" 
d="M488 652.5q61 -40.5 94.5 -120t33.5 -192.5q0 -110 -33 -188.5t-94 -120t-144 -41.5q-81 0 -142 40.5t-95 119.5t-34 189q0 111 34 191t95.5 121.5t141.5 41.5q82 0 143 -40.5zM173.5 577.5q-63.5 -82.5 -63.5 -238.5q0 -102 29.5 -173.5t82.5 -107.5t123 -36
q111 0 173 81.5t62 236.5q0 157 -63 238.5t-172 81.5q-108 0 -171.5 -82.5zM422.5 865.5q31.5 -26.5 38.5 -68.5l-25 -5q-9 33 -32.5 50.5t-58.5 17.5t-58 -17.5t-32 -50.5l-25 5q7 42 38.5 68.5t76.5 26.5q46 0 77.5 -26.5z" />
    <glyph glyph-name="Omacron" unicode="&#x14c;" horiz-adv-x="690" 
d="M488 652.5q61 -40.5 94.5 -120t33.5 -192.5q0 -110 -33 -188.5t-94 -120t-144 -41.5q-81 0 -142 40.5t-95 119.5t-34 189q0 111 34 191t95.5 121.5t141.5 41.5q82 0 143 -40.5zM173.5 577.5q-63.5 -82.5 -63.5 -238.5q0 -102 29.5 -173.5t82.5 -107.5t123 -36
q111 0 173 81.5t62 236.5q0 157 -63 238.5t-172 81.5q-108 0 -171.5 -82.5zM236 808v32h218v-32h-218z" />
    <glyph glyph-name="uni1E52" unicode="&#x1e52;" horiz-adv-x="690" 
d="M444 921l-186 -76l-10 22l178 89zM236 765v32h218v-32h-218zM488 652.5q61 -40.5 94.5 -120t33.5 -192.5q0 -110 -33 -188.5t-94 -120t-144 -41.5q-81 0 -142 40.5t-95 119.5t-34 189q0 111 34 191t95.5 121.5t141.5 41.5q82 0 143 -40.5zM173.5 577.5
q-63.5 -82.5 -63.5 -238.5q0 -102 29.5 -173.5t82.5 -107.5t123 -36q111 0 173 81.5t62 236.5q0 157 -63 238.5t-172 81.5q-108 0 -171.5 -82.5z" />
    <glyph glyph-name="uni1E50" unicode="&#x1e50;" horiz-adv-x="690" 
d="M444 867l-10 -22l-186 76l17 35zM236 765v32h218v-32h-218zM488 652.5q61 -40.5 94.5 -120t33.5 -192.5q0 -110 -33 -188.5t-94 -120t-144 -41.5q-81 0 -142 40.5t-95 119.5t-34 189q0 111 34 191t95.5 121.5t141.5 41.5q82 0 143 -40.5zM173.5 577.5
q-63.5 -82.5 -63.5 -238.5q0 -102 29.5 -173.5t82.5 -107.5t123 -36q111 0 173 81.5t62 236.5q0 157 -63 238.5t-172 81.5q-108 0 -171.5 -82.5z" />
    <glyph glyph-name="uni01EA" unicode="&#x1ea;" horiz-adv-x="690" 
d="M328 -56q-28 -26 -28 -65q0 -25 16.5 -39.5t50.5 -14.5q24 0 56 6l-3 -33q-30 -6 -55 -6q-50 0 -75.5 23.5t-25.5 61.5q0 35 21 62t63 51h-3q-81 0 -142 40.5t-95 119.5t-34 189q0 111 34 191t95.5 121.5t141.5 41.5q82 0 143 -40.5t94.5 -120t33.5 -192.5
q0 -139 -51.5 -227t-144.5 -113q-64 -30 -92 -56zM139.5 165.5q29.5 -71.5 82.5 -107.5t123 -36q111 0 173 81.5t62 236.5q0 157 -63 238.5t-172 81.5q-108 0 -171.5 -82.5t-63.5 -238.5q0 -102 29.5 -173.5z" />
    <glyph glyph-name="uni01EC" unicode="&#x1ec;" horiz-adv-x="690" 
d="M454 808h-218v32h218v-32zM328 -56q-28 -26 -28 -65q0 -25 16.5 -39.5t50.5 -14.5q24 0 56 6l-3 -33q-30 -6 -55 -6q-50 0 -75.5 23.5t-25.5 61.5q0 35 21 62t63 51h-3q-81 0 -142 40.5t-95 119.5t-34 189q0 111 34 191t95.5 121.5t141.5 41.5q82 0 143 -40.5t94.5 -120
t33.5 -192.5q0 -139 -51.5 -227t-144.5 -113q-64 -30 -92 -56zM139.5 165.5q29.5 -71.5 82.5 -107.5t123 -36q111 0 173 81.5t62 236.5q0 157 -63 238.5t-172 81.5q-108 0 -171.5 -82.5t-63.5 -238.5q0 -102 29.5 -173.5z" />
    <glyph glyph-name="uni0186" unicode="&#x186;" horiz-adv-x="543" 
d="M348.5 653.5q56.5 -39.5 88.5 -118.5t32 -194q0 -111 -34.5 -190.5t-94.5 -120t-136 -40.5q-57 0 -100 17.5t-79 48.5l20 24q39 -29 74 -43t85 -14q64 0 116 35.5t82.5 107.5t30.5 175q0 162 -59.5 240.5t-159.5 78.5q-47 0 -86 -12.5t-76 -38.5l-19 24q78 60 184 60
q75 0 131.5 -39.5z" />
    <glyph glyph-name="Oslash" unicode="&#xd8;" horiz-adv-x="690" 
d="M574 551.5q42 -84.5 42 -211.5q0 -110 -33 -188.5t-94 -120t-144 -41.5q-47 0 -85 13h-1l-31 -118l-34 10l37 119q-74 36 -115.5 119t-41.5 206q0 111 34 191t95.5 121.5t141.5 41.5q44 0 83 -12l33 123l34 -10l-39 -124q76 -34 118 -118.5zM145 152.5
q35 -74.5 98 -106.5l178 603q-32 11 -76 11q-108 0 -171.5 -82.5t-63.5 -238.5q0 -112 35 -186.5zM518 103.5q62 81.5 62 236.5q0 117 -35 192.5t-100 106.5l-177 -604q33 -13 77 -13q111 0 173 81.5z" />
    <glyph glyph-name="Oslashacute" unicode="&#x1fe;" horiz-adv-x="690" 
d="M574 551.5q42 -84.5 42 -211.5q0 -110 -33 -188.5t-94 -120t-144 -41.5q-47 0 -85 13h-1l-31 -118l-34 10l37 119q-74 36 -115.5 119t-41.5 206q0 111 34 191t95.5 121.5t141.5 41.5q44 0 83 -12l33 123l34 -10l-39 -124q76 -34 118 -118.5zM145 152.5
q35 -74.5 98 -106.5l178 603q-32 11 -76 11q-108 0 -171.5 -82.5t-63.5 -238.5q0 -112 35 -186.5zM518 103.5q62 81.5 62 236.5q0 117 -35 192.5t-100 106.5l-177 -604q33 -13 77 -13q111 0 173 81.5zM435 847l-186 -76l-10 22l178 89z" />
    <glyph glyph-name="Otilde" unicode="&#xd5;" horiz-adv-x="690" 
d="M488 652.5q61 -40.5 94.5 -120t33.5 -192.5q0 -110 -33 -188.5t-94 -120t-144 -41.5q-81 0 -142 40.5t-95 119.5t-34 189q0 111 34 191t95.5 121.5t141.5 41.5q82 0 143 -40.5zM173.5 577.5q-63.5 -82.5 -63.5 -238.5q0 -102 29.5 -173.5t82.5 -107.5t123 -36
q111 0 173 81.5t62 236.5q0 157 -63 238.5t-172 81.5q-108 0 -171.5 -82.5zM370 806.5q-16 6.5 -37 18.5q-3 1 -13 7t-18.5 8.5t-15.5 2.5q-17 0 -30.5 -8t-28.5 -28l-21 12q33 54 80 54q12 0 23.5 -4.5t22 -9.5t13.5 -7q18 -11 32 -16.5t27 -5.5q16 0 29 9.5t29 33.5
l21 -12q-31 -61 -79 -61q-18 0 -34 6.5z" />
    <glyph glyph-name="uni1E4C" unicode="&#x1e4c;" horiz-adv-x="690" 
d="M442 942l-186 -76l-10 22l178 89zM370 763.5q-16 6.5 -37 18.5q-3 1 -13 7t-18.5 8.5t-15.5 2.5q-17 0 -30.5 -8t-28.5 -28l-21 12q33 54 80 54q13 0 26 -5t33 -16q21 -11 33.5 -16.5t25.5 -5.5q16 0 29 9.5t29 33.5l21 -12q-30 -61 -79 -61q-18 0 -34 6.5zM488 652.5
q61 -40.5 94.5 -120t33.5 -192.5q0 -110 -33 -188.5t-94 -120t-144 -41.5q-81 0 -142 40.5t-95 119.5t-34 189q0 111 34 191t95.5 121.5t141.5 41.5q82 0 143 -40.5zM173.5 577.5q-63.5 -82.5 -63.5 -238.5q0 -102 29.5 -173.5t82.5 -107.5t123 -36q111 0 173 81.5t62 236.5
q0 157 -63 238.5t-172 81.5q-108 0 -171.5 -82.5z" />
    <glyph glyph-name="uni022C" unicode="&#x22c;" horiz-adv-x="690" 
d="M236 881v32h218v-32h-218zM370 763.5q-16 6.5 -37 18.5q-3 1 -13 7t-18.5 8.5t-15.5 2.5q-17 0 -30.5 -8t-28.5 -28l-21 12q33 54 80 54q13 0 26 -5t33 -16q21 -11 33.5 -16.5t25.5 -5.5q16 0 29 9.5t29 33.5l21 -12q-30 -61 -79 -61q-18 0 -34 6.5zM488 652.5
q61 -40.5 94.5 -120t33.5 -192.5q0 -110 -33 -188.5t-94 -120t-144 -41.5q-81 0 -142 40.5t-95 119.5t-34 189q0 111 34 191t95.5 121.5t141.5 41.5q82 0 143 -40.5zM173.5 577.5q-63.5 -82.5 -63.5 -238.5q0 -102 29.5 -173.5t82.5 -107.5t123 -36q111 0 173 81.5t62 236.5
q0 157 -63 238.5t-172 81.5q-108 0 -171.5 -82.5z" />
    <glyph glyph-name="OE" unicode="&#x152;" horiz-adv-x="852" 
d="M810 0h-409q-30 -10 -66 -10q-76 0 -135 41t-92.5 119.5t-33.5 188.5t33.5 190t92.5 122t135 42q36 0 69 -11h400l-4 -32h-332q58 -37 91 -107t37 -169h164v-31h-164q-1 -115 -34.5 -194t-95.5 -117h344v-32zM139 166q29 -71 80 -107.5t116 -36.5q105 0 165 83.5
t60 243.5q0 100 -28.5 170t-79.5 105.5t-117 35.5t-116.5 -36t-79.5 -108.5t-29 -176.5q0 -102 29 -173z" />
    <glyph glyph-name="P" unicode="P" horiz-adv-x="562" 
d="M509 483q0 -108 -66 -157.5t-183 -49.5h-106v-276h-35v682h146q244 0 244 -199zM417 348q55 40 55 134q0 91 -51.5 130t-155.5 39h-111v-343h109q99 0 154 40z" />
    <glyph glyph-name="uni1E54" unicode="&#x1e54;" horiz-adv-x="562" 
d="M509 483q0 -108 -66 -157.5t-183 -49.5h-106v-276h-35v682h146q244 0 244 -199zM417 348q55 40 55 134q0 91 -51.5 130t-155.5 39h-111v-343h109q99 0 154 40zM379 837l-186 -76l-10 22l178 89z" />
    <glyph glyph-name="uni1E56" unicode="&#x1e56;" horiz-adv-x="562" 
d="M509 483q0 -108 -66 -157.5t-183 -49.5h-106v-276h-35v682h146q244 0 244 -199zM417 348q55 40 55 134q0 91 -51.5 130t-155.5 39h-111v-343h109q99 0 154 40zM302.5 852q7.5 -8 7.5 -19q0 -12 -7.5 -20t-21.5 -8q-12 0 -20 8t-8 20q0 11 8 19t20 8q14 0 21.5 -8z" />
    <glyph glyph-name="uni01A4" unicode="&#x1a4;" horiz-adv-x="606" 
d="M490 634q62 -48 62 -151q0 -108 -66 -157.5t-182 -49.5h-106v-276h-36v651h-27q-41 0 -61.5 -20t-20.5 -52q0 -22 6 -37.5t18 -38.5l-26 -15q-16 26 -24 44.5t-8 46.5q0 47 31 75t89 28h24h146q119 0 181 -48zM461 348q55 40 55 134q0 91 -51.5 130t-155.5 39h-111v-343
h109q99 0 154 40z" />
    <glyph glyph-name="Thorn" unicode="&#xde;" horiz-adv-x="562" 
d="M509 357q0 -214 -249 -214h-106v-143h-35v682h35v-125h111q244 0 244 -200zM417.5 215.5q54.5 40.5 54.5 140.5q0 91 -51.5 130t-155.5 39h-111v-350h109q100 0 154.5 40.5z" />
    <glyph glyph-name="Q" unicode="Q" horiz-adv-x="675" 
d="M637 -56l-24 -29q-52 45 -112.5 61t-155.5 16q-81 0 -142 40t-95 118.5t-34 188.5q0 111 34 191t95.5 121.5t141.5 41.5q82 0 143 -40.5t94.5 -120t33.5 -192.5q0 -143 -50 -223.5t-134 -103.5q132 -4 205 -69zM139.5 165.5q29.5 -71.5 82.5 -107.5t123 -36
q111 0 173 81.5t62 236.5q0 157 -63 238.5t-172 81.5q-108 0 -171.5 -82.5t-63.5 -238.5q0 -102 29.5 -173.5z" />
    <glyph glyph-name="uni024A" unicode="&#x24a;" horiz-adv-x="653" 
d="M699 -168q-40 -32 -93 -32q-48 0 -77.5 30.5t-29.5 89.5v145q-65 -75 -175 -75q-71 0 -128 39t-89.5 115.5t-32.5 184.5q0 115 33 197t90 124.5t128 42.5q110 0 176 -76l3 65h30v-761q0 -48 20.5 -69t52.5 -21q40 0 75 24zM499 105v472q-61 83 -173 83q-62 0 -110.5 -37
t-77 -111.5t-28.5 -182.5q0 -100 28.5 -169t77 -103.5t109.5 -34.5q112 0 174 83z" />
    <glyph glyph-name="R" unicode="R" horiz-adv-x="579" 
d="M312 318h-158v-318h-35v682h155q231 0 231 -180q0 -75 -40 -118t-115 -60l190 -324h-44zM281 350q91 0 139 37.5t48 114.5q0 75 -46 112t-151 37h-117v-301h127z" />
    <glyph glyph-name="Racute" unicode="&#x154;" horiz-adv-x="579" 
d="M312 318h-158v-318h-35v682h155q231 0 231 -180q0 -75 -40 -118t-115 -60l190 -324h-44zM281 350q91 0 139 37.5t48 114.5q0 75 -46 112t-151 37h-117v-301h127zM388 837l-186 -76l-10 22l178 89z" />
    <glyph glyph-name="Rcaron" unicode="&#x158;" horiz-adv-x="579" 
d="M312 318h-158v-318h-35v682h155q231 0 231 -180q0 -75 -40 -118t-115 -60l190 -324h-44zM281 350q91 0 139 37.5t48 114.5q0 75 -46 112t-151 37h-117v-301h127zM424 853l-124 -95h-19l-126 95l17 20l118 -80l118 80z" />
    <glyph glyph-name="Rcommaaccent" unicode="&#x156;" horiz-adv-x="579" 
d="M312 318h-158v-318h-35v682h155q231 0 231 -180q0 -75 -40 -118t-115 -60l190 -324h-44zM281 350q91 0 139 37.5t48 114.5q0 75 -46 112t-151 37h-117v-301h127zM328 -99.5q9 -9.5 9 -23.5q0 -11 -5 -24.5t-14 -33.5l-39 -86h-24l34 113q-20 9 -20 31q0 14 9.5 23.5
t24.5 9.5q16 0 25 -9.5z" />
    <glyph glyph-name="uni0210" unicode="&#x210;" horiz-adv-x="579" 
d="M312 318h-158v-318h-35v682h155q231 0 231 -180q0 -75 -40 -118t-115 -60l190 -324h-44zM281 350q91 0 139 37.5t48 114.5q0 75 -46 112t-151 37h-117v-301h127zM261 822l-24 -12l-84 131l34 17zM367 826l-24 -12l-76 126l34 18z" />
    <glyph glyph-name="uni1E5A" unicode="&#x1e5a;" horiz-adv-x="579" 
d="M312 318h-158v-318h-35v682h155q231 0 231 -180q0 -75 -40 -118t-115 -60l190 -324h-44zM281 350q91 0 139 37.5t48 114.5q0 75 -46 112t-151 37h-117v-301h127zM284.5 -141q-7.5 8 -7.5 19t7.5 19t21.5 8q12 0 20 -8t8 -19t-8 -19t-20 -8q-14 0 -21.5 8z" />
    <glyph glyph-name="uni0212" unicode="&#x212;" horiz-adv-x="579" 
d="M312 318h-158v-318h-35v682h155q231 0 231 -180q0 -75 -40 -118t-115 -60l190 -324h-44zM281 350q91 0 139 37.5t48 114.5q0 75 -46 112t-151 37h-117v-301h127zM367.5 865.5q31.5 -26.5 38.5 -68.5l-25 -5q-9 33 -32.5 50.5t-58.5 17.5t-58 -17.5t-32 -50.5l-25 5
q7 42 38.5 68.5t76.5 26.5q46 0 77.5 -26.5z" />
    <glyph glyph-name="uni024C" unicode="&#x24c;" horiz-adv-x="576" 
d="M310 318h-159v-318h-35v318h-91v32h91v332h155q231 0 231 -180q0 -76 -40.5 -118.5t-114.5 -59.5l190 -324h-44zM151 350h122h5q91 0 139 37.5t48 114.5q0 75 -46 112t-151 37h-117v-301z" />
    <glyph glyph-name="uni2C64" unicode="&#x2c64;" horiz-adv-x="579" 
d="M154 318v-397q0 -48 20 -69t52 -21q24 0 41.5 6.5t34.5 17.5l17 -23q-42 -32 -93 -32q-48 0 -77.5 30.5t-29.5 89.5v762h155q231 0 231 -180q0 -75 -40 -118t-115 -60l190 -324h-44l-184 318h-158zM154 651v-301h127q91 0 139 37.5t48 114.5q0 75 -46 112t-151 37h-117z
" />
    <glyph glyph-name="uni2C64.ss01" horiz-adv-x="399" 
d="M361 690.5q13 -2.5 29 -6.5l-8 -32q-30 7 -59 7q-123 0 -169 -166v-572q0 -48 20 -69t52 -21q24 0 41.5 6.5t34.5 17.5l16 -23q-40 -32 -92 -32q-48 0 -77.5 30.5t-29.5 89.5v762h30l2 -121q23 66 67.5 99t105.5 33q24 0 37 -2.5z" />
    <glyph glyph-name="S" unicode="S" horiz-adv-x="535" 
d="M367 675q42 -18 83 -55l-22 -24q-38 34 -75 49t-87 15q-71 0 -113 -35.5t-42 -92.5q0 -40 16 -66t51.5 -45.5t98.5 -38.5q70 -21 111.5 -45.5t62 -60.5t20.5 -92q0 -57 -27 -101t-76 -68.5t-111 -24.5q-64 0 -114 21.5t-95 61.5l23 24q40 -37 83.5 -56t101.5 -19
q81 0 130.5 43.5t49.5 116.5q0 47 -16.5 77.5t-53 51.5t-102.5 41q-71 22 -111.5 46t-59 56t-18.5 78q0 45 23.5 82t67 58t99.5 21q60 0 102 -18z" />
    <glyph glyph-name="Sacute" unicode="&#x15a;" horiz-adv-x="535" 
d="M367 675q42 -18 83 -55l-22 -24q-38 34 -75 49t-87 15q-71 0 -113 -35.5t-42 -92.5q0 -40 16 -66t51.5 -45.5t98.5 -38.5q70 -21 111.5 -45.5t62 -60.5t20.5 -92q0 -57 -27 -101t-76 -68.5t-111 -24.5q-64 0 -114 21.5t-95 61.5l23 24q40 -37 83.5 -56t101.5 -19
q81 0 130.5 43.5t49.5 116.5q0 47 -16.5 77.5t-53 51.5t-102.5 41q-71 22 -111.5 46t-59 56t-18.5 78q0 45 23.5 82t67 58t99.5 21q60 0 102 -18zM366 837l-186 -76l-10 22l178 89z" />
    <glyph glyph-name="Sacute.loclPLK" horiz-adv-x="535" 
d="M367 675q42 -18 83 -55l-22 -24q-38 34 -75 49t-87 15q-71 0 -113 -35.5t-42 -92.5q0 -40 16 -66t51.5 -45.5t98.5 -38.5q70 -21 111.5 -45.5t62 -60.5t20.5 -92q0 -57 -27 -101t-76 -68.5t-111 -24.5q-64 0 -114 21.5t-95 61.5l23 24q40 -37 83.5 -56t101.5 -19
q81 0 130.5 43.5t49.5 116.5q0 47 -16.5 77.5t-53 51.5t-102.5 41q-71 22 -111.5 46t-59 56t-18.5 78q0 45 23.5 82t67 58t99.5 21q60 0 102 -18zM368 875l-111 -145l-20 13l100 153z" />
    <glyph glyph-name="uniA78B" unicode="&#xa78b;" horiz-adv-x="195" 
d="M79 682h37l-4 -324h-29z" />
    <glyph glyph-name="Scaron" unicode="&#x160;" horiz-adv-x="535" 
d="M367 675q42 -18 83 -55l-22 -24q-38 34 -75 49t-87 15q-71 0 -113 -35.5t-42 -92.5q0 -40 16 -66t51.5 -45.5t98.5 -38.5q70 -21 111.5 -45.5t62 -60.5t20.5 -92q0 -57 -27 -101t-76 -68.5t-111 -24.5q-64 0 -114 21.5t-95 61.5l23 24q40 -37 83.5 -56t101.5 -19
q81 0 130.5 43.5t49.5 116.5q0 47 -16.5 77.5t-53 51.5t-102.5 41q-71 22 -111.5 46t-59 56t-18.5 78q0 45 23.5 82t67 58t99.5 21q60 0 102 -18zM402 853l-124 -95h-19l-126 95l17 20l118 -80l118 80z" />
    <glyph glyph-name="Scedilla" unicode="&#x15e;" horiz-adv-x="535" 
d="M445.5 85.5q-25.5 -43.5 -72 -68.5t-105.5 -27v-60q91 -6 91 -70q0 -36 -26.5 -57t-65.5 -21q-41 0 -72 20l14 25q22 -15 58 -15q26 0 42.5 12t16.5 36t-21 35t-68 12l5 83q-59 3 -105.5 24t-88.5 59l23 24q40 -37 83.5 -56t101.5 -19q81 0 130.5 43.5t49.5 116.5
q0 47 -16.5 77.5t-53 51.5t-102.5 41q-71 22 -111.5 46t-59 56t-18.5 78q0 45 23.5 82t67 58t99.5 21q60 0 102 -18t83 -55l-22 -24q-38 34 -75 49t-87 15q-71 0 -113 -35.5t-42 -92.5q0 -40 16 -66t51.5 -45.5t98.5 -38.5q70 -21 111.5 -45.5t62 -60.5t20.5 -92
q0 -55 -25.5 -98.5z" />
    <glyph glyph-name="Scircumflex" unicode="&#x15c;" horiz-adv-x="535" 
d="M367 675q42 -18 83 -55l-22 -24q-38 34 -75 49t-87 15q-71 0 -113 -35.5t-42 -92.5q0 -40 16 -66t51.5 -45.5t98.5 -38.5q70 -21 111.5 -45.5t62 -60.5t20.5 -92q0 -57 -27 -101t-76 -68.5t-111 -24.5q-64 0 -114 21.5t-95 61.5l23 24q40 -37 83.5 -56t101.5 -19
q81 0 130.5 43.5t49.5 116.5q0 47 -16.5 77.5t-53 51.5t-102.5 41q-71 22 -111.5 46t-59 56t-18.5 78q0 45 23.5 82t67 58t99.5 21q60 0 102 -18zM268 844l-118 -79l-17 19l126 95h19l124 -95l-16 -19z" />
    <glyph glyph-name="Scommaaccent" unicode="&#x218;" horiz-adv-x="535" 
d="M367 675q42 -18 83 -55l-22 -24q-38 34 -75 49t-87 15q-71 0 -113 -35.5t-42 -92.5q0 -40 16 -66t51.5 -45.5t98.5 -38.5q70 -21 111.5 -45.5t62 -60.5t20.5 -92q0 -57 -27 -101t-76 -68.5t-111 -24.5q-64 0 -114 21.5t-95 61.5l23 24q40 -37 83.5 -56t101.5 -19
q81 0 130.5 43.5t49.5 116.5q0 47 -16.5 77.5t-53 51.5t-102.5 41q-71 22 -111.5 46t-59 56t-18.5 78q0 45 23.5 82t67 58t99.5 21q60 0 102 -18zM285 -99.5q9 -9.5 9 -23.5q0 -11 -5 -24.5t-14 -33.5l-39 -86h-24l34 113q-20 9 -20 31q0 14 9.5 23.5t24.5 9.5q16 0 25 -9.5
z" />
    <glyph glyph-name="uni1E60" unicode="&#x1e60;" horiz-adv-x="535" 
d="M367 675q42 -18 83 -55l-22 -24q-38 34 -75 49t-87 15q-71 0 -113 -35.5t-42 -92.5q0 -40 16 -66t51.5 -45.5t98.5 -38.5q70 -21 111.5 -45.5t62 -60.5t20.5 -92q0 -57 -27 -101t-76 -68.5t-111 -24.5q-64 0 -114 21.5t-95 61.5l23 24q40 -37 83.5 -56t101.5 -19
q81 0 130.5 43.5t49.5 116.5q0 47 -16.5 77.5t-53 51.5t-102.5 41q-71 22 -111.5 46t-59 56t-18.5 78q0 45 23.5 82t67 58t99.5 21q60 0 102 -18zM289.5 852q7.5 -8 7.5 -19q0 -12 -7.5 -20t-21.5 -8q-12 0 -20 8t-8 20q0 11 8 19t20 8q14 0 21.5 -8z" />
    <glyph glyph-name="uni1E62" unicode="&#x1e62;" horiz-adv-x="535" 
d="M367 675q42 -18 83 -55l-22 -24q-38 34 -75 49t-87 15q-71 0 -113 -35.5t-42 -92.5q0 -40 16 -66t51.5 -45.5t98.5 -38.5q70 -21 111.5 -45.5t62 -60.5t20.5 -92q0 -57 -27 -101t-76 -68.5t-111 -24.5q-64 0 -114 21.5t-95 61.5l23 24q40 -37 83.5 -56t101.5 -19
q81 0 130.5 43.5t49.5 116.5q0 47 -16.5 77.5t-53 51.5t-102.5 41q-71 22 -111.5 46t-59 56t-18.5 78q0 45 23.5 82t67 58t99.5 21q60 0 102 -18zM241.5 -141q-7.5 8 -7.5 19t7.5 19t21.5 8q12 0 20 -8t8 -19t-8 -19t-20 -8q-14 0 -21.5 8z" />
    <glyph glyph-name="uni1E9E" unicode="&#x1e9e;" horiz-adv-x="643" 
d="M436 676q53 -17 109 -49v-26l-201 -219q240 -24 240 -201q0 -88 -52.5 -139.5t-141.5 -51.5q-67 0 -114 22l14 27q46 -17 99 -17q74 0 116.5 41t42.5 118q0 82 -58 123t-182 51v32l202 224q-47 23 -91 36t-95 13q-170 0 -170 -169v-491h-35v495q0 95 54 146.5t150 51.5
q60 0 113 -17z" />
    <glyph glyph-name="uni018F" unicode="&#x18f;" horiz-adv-x="647" 
d="M507 607q66 -86 66 -268q0 -174 -69 -261.5t-187 -87.5t-185.5 87t-67.5 252q0 22 1 35h471q-6 155 -61.5 225.5t-156.5 70.5q-54 0 -98.5 -16.5t-91.5 -54.5l-21 23q49 42 99.5 61.5t112.5 19.5q122 0 188 -86zM475.5 98.5q59.5 76.5 60.5 234.5h-435q0 -155 58 -233
t160 -78q97 0 156.5 76.5z" />
    <glyph glyph-name="T" unicode="T" horiz-adv-x="480" 
d="M464 649h-207v-649h-35v649h-207v33h455z" />
    <glyph glyph-name="Tbar" unicode="&#x166;" horiz-adv-x="487" 
d="M257 649v-267h124v-30h-124v-352h-35v352h-124v30h124v267h-207v33h455l-6 -33h-207z" />
    <glyph glyph-name="Tcaron" unicode="&#x164;" horiz-adv-x="480" 
d="M464 649h-207v-649h-35v649h-207v33h455zM374 853l-124 -95h-19l-126 95l17 20l118 -80l118 80z" />
    <glyph glyph-name="uni0162" unicode="&#x162;" horiz-adv-x="480" 
d="M348 -140q0 -35 -27 -56.5t-65 -21.5q-41 0 -72 20l14 25q22 -15 58 -15q26 0 42.5 12t16.5 36t-21 35t-68 12l6 93h-10v649h-207v33h455l-6 -33h-207v-719q91 -6 91 -70z" />
    <glyph glyph-name="uni1E70" unicode="&#x1e70;" horiz-adv-x="480" 
d="M464 649h-207v-649h-35v649h-207v33h455zM105 -172l125 101h19l125 -101l-16 -19l-119 85l-117 -85z" />
    <glyph glyph-name="uni021A" unicode="&#x21a;" horiz-adv-x="480" 
d="M464 649h-207v-649h-35v649h-207v33h455zM263 -99.5q9 -9.5 9 -23.5q0 -11 -5 -24.5t-14 -33.5l-39 -86h-24l34 113q-20 9 -20 31q0 14 9.5 23.5t24.5 9.5q16 0 25 -9.5z" />
    <glyph glyph-name="uni023E" unicode="&#x23e;" horiz-adv-x="480" 
d="M345 649l-88 -301v-348h-35v229l-87 -299l-24 7l111 380v332h-207v33h315l17 59l23 -7l-15 -52h115l-6 -33h-119zM320 649h-63v-213z" />
    <glyph glyph-name="uni1E6A" unicode="&#x1e6a;" horiz-adv-x="480" 
d="M464 649h-207v-649h-35v649h-207v33h455zM261.5 852q7.5 -8 7.5 -19q0 -12 -7.5 -20t-21.5 -8q-12 0 -20 8t-8 20q0 11 8 19t20 8q14 0 21.5 -8z" />
    <glyph glyph-name="uni1E6C" unicode="&#x1e6c;" horiz-adv-x="480" 
d="M464 649h-207v-649h-35v649h-207v33h455zM219.5 -141q-7.5 8 -7.5 19t7.5 19t21.5 8q12 0 20 -8t8 -19t-8 -19t-20 -8q-14 0 -21.5 8z" />
    <glyph glyph-name="uni01AC" unicode="&#x1ac;" horiz-adv-x="501" 
d="M485 649h-206v-649h-36v649h-108q-42 0 -62 -19t-20 -51q0 -22 6 -38.5t18 -37.5l-26 -15q-16 26 -24 44.5t-8 46.5q0 47 31.5 75t91.5 28h349z" />
    <glyph glyph-name="uni1E6E" unicode="&#x1e6e;" horiz-adv-x="480" 
d="M464 649h-207v-649h-35v649h-207v33h455zM131 -149v32h218v-32h-218z" />
    <glyph glyph-name="uni01BC" unicode="&#x1bc;" horiz-adv-x="485" 
d="M403 652h-286v-260q55 36 124 36q89 0 139.5 -55.5t50.5 -153.5q0 -103 -55.5 -166t-151.5 -63q-59 0 -104 20t-81 61l25 21q32 -37 70 -54t91 -17q79 0 124.5 53t45.5 145q0 88 -42 133t-115 45q-39 0 -67 -9t-60 -28h-27v322h326z" />
    <glyph glyph-name="uni0184" unicode="&#x184;" horiz-adv-x="552" 
d="M448.5 363.5q60.5 -50.5 60.5 -149.5q0 -108 -62.5 -161t-170.5 -53h-157v567l-41 30q34 36 46 85h30v-268h123q111 0 171.5 -50.5zM422.5 76q49.5 44 49.5 138q0 86 -50 127t-143 41h-125v-350h130q89 0 138.5 44z" />
    <glyph glyph-name="uni01A7" unicode="&#x1a7;" horiz-adv-x="526" 
d="M411.5 649.5q47.5 -43.5 47.5 -112.5q0 -47 -18 -79t-58.5 -56.5t-112.5 -48.5q-65 -22 -101.5 -44.5t-52.5 -53.5t-16 -78q0 -72 47 -113.5t121 -41.5q60 0 103.5 19t83.5 56l22 -24q-44 -40 -94.5 -61.5t-115.5 -21.5q-57 0 -103.5 23.5t-73.5 66t-27 98.5
q0 79 45.5 124.5t149.5 79.5q64 21 99 40.5t51 46.5t16 68q0 56 -37.5 89.5t-105.5 33.5q-53 0 -92.5 -14.5t-82.5 -48.5l-22 23q47 37 91 55t106 18q83 0 130.5 -43.5z" />
    <glyph glyph-name="uni01AE" unicode="&#x1ae;" horiz-adv-x="480" 
d="M277 -148q20 -21 52 -21q24 0 41.5 6.5t34.5 17.5l17 -23q-42 -32 -93 -32q-48 0 -77.5 30.5t-29.5 89.5v729h-207v33h455l-6 -33h-207v-728q0 -48 20 -69z" />
    <glyph glyph-name="U" unicode="U" horiz-adv-x="644" 
d="M536 209q0 -100 -53.5 -159.5t-159.5 -59.5q-108 0 -161 59t-53 160v473h35v-470q0 -89 43.5 -139.5t135.5 -50.5q91 0 134 51t43 139v470h36v-473z" />
    <glyph glyph-name="Uacute" unicode="&#xda;" horiz-adv-x="644" 
d="M536 209q0 -100 -53.5 -159.5t-159.5 -59.5q-108 0 -161 59t-53 160v473h35v-470q0 -89 43.5 -139.5t135.5 -50.5q91 0 134 51t43 139v470h36v-473zM420 837l-186 -76l-10 22l178 89z" />
    <glyph glyph-name="uni0244" unicode="&#x244;" horiz-adv-x="654" 
d="M604 517h-63v-308q0 -101 -53 -160t-160 -59t-160.5 59.5t-53.5 159.5v308h-63v27h63v138h35v-138h357v138h35v-138h63v-27zM506 517h-357v-305q0 -89 44 -139.5t135 -50.5t134.5 51t43.5 139v305z" />
    <glyph glyph-name="Ubreve" unicode="&#x16c;" horiz-adv-x="644" 
d="M536 209q0 -100 -53.5 -159.5t-159.5 -59.5q-108 0 -161 59t-53 160v473h35v-470q0 -89 43.5 -139.5t135.5 -50.5q91 0 134 51t43 139v470h36v-473zM246 793.5q-32 24.5 -39 60.5l25 5q9 -26 32.5 -42t57.5 -16t58 16t33 42l25 -5q-7 -36 -39 -60.5t-77 -24.5
q-44 0 -76 24.5z" />
    <glyph glyph-name="uni01D3" unicode="&#x1d3;" horiz-adv-x="644" 
d="M536 209q0 -100 -53.5 -159.5t-159.5 -59.5q-108 0 -161 59t-53 160v473h35v-470q0 -89 43.5 -139.5t135.5 -50.5q91 0 134 51t43 139v470h36v-473zM456 853l-124 -95h-19l-126 95l17 20l118 -80l118 80z" />
    <glyph glyph-name="Ucircumflex" unicode="&#xdb;" horiz-adv-x="644" 
d="M536 209q0 -100 -53.5 -159.5t-159.5 -59.5q-108 0 -161 59t-53 160v473h35v-470q0 -89 43.5 -139.5t135.5 -50.5q91 0 134 51t43 139v470h36v-473zM322 844l-118 -79l-17 19l126 95h19l124 -95l-16 -19z" />
    <glyph glyph-name="uni0214" unicode="&#x214;" horiz-adv-x="644" 
d="M536 209q0 -100 -53.5 -159.5t-159.5 -59.5q-108 0 -161 59t-53 160v473h35v-470q0 -89 43.5 -139.5t135.5 -50.5q91 0 134 51t43 139v470h36v-473zM293 822l-24 -12l-84 131l34 17zM399 826l-24 -12l-76 126l34 18z" />
    <glyph glyph-name="Udieresis" unicode="&#xdc;" horiz-adv-x="644" 
d="M536 209q0 -100 -53.5 -159.5t-159.5 -59.5q-108 0 -161 59t-53 160v473h35v-470q0 -89 43.5 -139.5t135.5 -50.5q91 0 134 51t43 139v470h36v-473zM254 841.5q8 -7.5 8 -19.5q0 -11 -8 -19t-20 -8t-19.5 8t-7.5 19t7.5 19t19.5 8t20 -7.5zM429 841.5q8 -7.5 8 -19.5
q0 -11 -8 -19t-20 -8q-13 0 -20.5 8t-7.5 19q0 12 7.5 19.5t20.5 7.5q12 0 20 -7.5z" />
    <glyph glyph-name="uni01D7" unicode="&#x1d7;" horiz-adv-x="644" 
d="M424 916l-109 -115l-18 16l101 123zM254.5 788.5q7.5 -7.5 7.5 -19.5q0 -11 -7.5 -19t-20.5 -8q-12 0 -19.5 8t-7.5 19t7.5 19t19.5 8q13 0 20.5 -7.5zM429.5 788.5q7.5 -7.5 7.5 -19.5q0 -11 -7.5 -19t-20.5 -8q-12 0 -20 8t-8 19q0 12 8 19.5t20 7.5q13 0 20.5 -7.5z
M536 209q0 -100 -53.5 -159.5t-159.5 -59.5q-108 0 -161 59t-53 160v473h35v-470q0 -89 43.5 -139.5t135.5 -50.5q91 0 134 51t43 139v470h36v-473z" />
    <glyph glyph-name="uni01D9" unicode="&#x1d9;" horiz-adv-x="644" 
d="M454 900l-124 -95h-19l-126 95l17 20l118 -80l118 80zM255.5 788.5q7.5 -7.5 7.5 -19.5q0 -11 -7.5 -19t-20.5 -8q-12 0 -20 8t-8 19q0 12 8 19.5t20 7.5q13 0 20.5 -7.5zM429.5 788q7.5 -8 7.5 -19t-7.5 -19t-19.5 -8t-20 8t-8 19q0 12 8 19.5t20 7.5t19.5 -8zM536 209
q0 -100 -53.5 -159.5t-159.5 -59.5q-108 0 -161 59t-53 160v473h35v-470q0 -89 43.5 -139.5t135.5 -50.5q91 0 134 51t43 139v470h36v-473z" />
    <glyph glyph-name="uni01DB" unicode="&#x1db;" horiz-adv-x="644" 
d="M353 817l-18 -16l-109 115l26 24zM254.5 788.5q7.5 -7.5 7.5 -19.5q0 -11 -7.5 -19t-20.5 -8q-12 0 -19.5 8t-7.5 19t7.5 19t19.5 8q13 0 20.5 -7.5zM429.5 788.5q7.5 -7.5 7.5 -19.5q0 -11 -7.5 -19t-20.5 -8q-12 0 -20 8t-8 19q0 12 8 19.5t20 7.5q13 0 20.5 -7.5z
M536 209q0 -100 -53.5 -159.5t-159.5 -59.5q-108 0 -161 59t-53 160v473h35v-470q0 -89 43.5 -139.5t135.5 -50.5q91 0 134 51t43 139v470h36v-473z" />
    <glyph glyph-name="uni01D5" unicode="&#x1d5;" horiz-adv-x="644" 
d="M215 860v32h218v-32h-218zM254.5 788.5q7.5 -7.5 7.5 -19.5q0 -11 -7.5 -19t-20.5 -8q-12 0 -19.5 8t-7.5 19t7.5 19t19.5 8q13 0 20.5 -7.5zM429.5 788.5q7.5 -7.5 7.5 -19.5q0 -11 -7.5 -19t-20.5 -8q-12 0 -20 8t-8 19q0 12 8 19.5t20 7.5q13 0 20.5 -7.5zM536 209
q0 -100 -53.5 -159.5t-159.5 -59.5q-108 0 -161 59t-53 160v473h35v-470q0 -89 43.5 -139.5t135.5 -50.5q91 0 134 51t43 139v470h36v-473z" />
    <glyph glyph-name="uni1EE4" unicode="&#x1ee4;" horiz-adv-x="644" 
d="M536 209q0 -100 -53.5 -159.5t-159.5 -59.5q-108 0 -161 59t-53 160v473h35v-470q0 -89 43.5 -139.5t135.5 -50.5q91 0 134 51t43 139v470h36v-473zM301.5 -141q-7.5 8 -7.5 19t7.5 19t21.5 8q12 0 20 -8t8 -19t-8 -19t-20 -8q-14 0 -21.5 8z" />
    <glyph glyph-name="Ugrave" unicode="&#xd9;" horiz-adv-x="644" 
d="M536 209q0 -100 -53.5 -159.5t-159.5 -59.5q-108 0 -161 59t-53 160v473h35v-470q0 -89 43.5 -139.5t135.5 -50.5q91 0 134 51t43 139v470h36v-473zM419 783l-10 -22l-186 76l17 35z" />
    <glyph glyph-name="uni1EE6" unicode="&#x1ee6;" horiz-adv-x="644" 
d="M536 209q0 -100 -53.5 -159.5t-159.5 -59.5q-108 0 -161 59t-53 160v473h35v-470q0 -89 43.5 -139.5t135.5 -50.5q91 0 134 51t43 139v470h36v-473zM304 847q68 2 68 50q0 20 -13 31.5t-36 11.5q-30 0 -58 -14l-12 24q33 19 72 19q38 0 60 -19.5t22 -51.5q0 -63 -70 -71
v-45h-33v65z" />
    <glyph glyph-name="Uhorn" unicode="&#x1af;" horiz-adv-x="644" 
d="M536 209q0 -100 -53.5 -159.5t-159.5 -59.5q-108 0 -161 59t-53 160v473h35v-470q0 -89 43.5 -139.5t135.5 -50.5q91 0 134 51t43 139v470h36v-473zM526 624q36 4 51 18.5t15 43.5q0 37 -14 72l27 9q18 -36 18 -81q0 -39 -23 -61t-64 -22z" />
    <glyph glyph-name="uni1EE8" unicode="&#x1ee8;" horiz-adv-x="644" 
d="M536 209q0 -100 -53.5 -159.5t-159.5 -59.5q-108 0 -161 59t-53 160v473h35v-470q0 -89 43.5 -139.5t135.5 -50.5q91 0 134 51t43 139v470h36v-473zM526 624q36 4 51 18.5t15 43.5q0 37 -14 72l27 9q18 -36 18 -81q0 -39 -23 -61t-64 -22zM420 837l-186 -76l-10 22
l178 89z" />
    <glyph glyph-name="uni1EF0" unicode="&#x1ef0;" horiz-adv-x="644" 
d="M536 209q0 -100 -53.5 -159.5t-159.5 -59.5q-108 0 -161 59t-53 160v473h35v-470q0 -89 43.5 -139.5t135.5 -50.5q91 0 134 51t43 139v470h36v-473zM526 624q36 4 51 18.5t15 43.5q0 37 -14 72l27 9q18 -36 18 -81q0 -39 -23 -61t-64 -22zM301.5 -141q-7.5 8 -7.5 19
t7.5 19t21.5 8q12 0 20 -8t8 -19t-8 -19t-20 -8q-14 0 -21.5 8z" />
    <glyph glyph-name="uni1EEA" unicode="&#x1eea;" horiz-adv-x="644" 
d="M536 209q0 -100 -53.5 -159.5t-159.5 -59.5q-108 0 -161 59t-53 160v473h35v-470q0 -89 43.5 -139.5t135.5 -50.5q91 0 134 51t43 139v470h36v-473zM526 624q36 4 51 18.5t15 43.5q0 37 -14 72l27 9q18 -36 18 -81q0 -39 -23 -61t-64 -22zM419 783l-10 -22l-186 76l17 35
z" />
    <glyph glyph-name="uni1EEC" unicode="&#x1eec;" horiz-adv-x="644" 
d="M536 209q0 -100 -53.5 -159.5t-159.5 -59.5q-108 0 -161 59t-53 160v473h35v-470q0 -89 43.5 -139.5t135.5 -50.5q91 0 134 51t43 139v470h36v-473zM526 624q36 4 51 18.5t15 43.5q0 37 -14 72l27 9q18 -36 18 -81q0 -39 -23 -61t-64 -22zM304 847q68 2 68 50
q0 20 -13 31.5t-36 11.5q-30 0 -58 -14l-12 24q33 19 72 19q38 0 60 -19.5t22 -51.5q0 -63 -70 -71v-45h-33v65z" />
    <glyph glyph-name="uni1EEE" unicode="&#x1eee;" horiz-adv-x="644" 
d="M536 209q0 -100 -53.5 -159.5t-159.5 -59.5q-108 0 -161 59t-53 160v473h35v-470q0 -89 43.5 -139.5t135.5 -50.5q91 0 134 51t43 139v470h36v-473zM526 624q36 4 51 18.5t15 43.5q0 37 -14 72l27 9q18 -36 18 -81q0 -39 -23 -61t-64 -22zM348 806.5q-16 6.5 -37 18.5
q-3 1 -13 7t-18.5 8.5t-15.5 2.5q-17 0 -30.5 -8t-28.5 -28l-21 12q33 54 80 54q12 0 23.5 -4.5t22 -9.5t13.5 -7q18 -11 32 -16.5t27 -5.5q16 0 29 9.5t29 33.5l21 -12q-31 -61 -79 -61q-18 0 -34 6.5z" />
    <glyph glyph-name="Uhungarumlaut" unicode="&#x170;" horiz-adv-x="644" 
d="M536 209q0 -100 -53.5 -159.5t-159.5 -59.5q-108 0 -161 59t-53 160v473h35v-470q0 -89 43.5 -139.5t135.5 -50.5q91 0 134 51t43 139v470h36v-473zM347 904l-77 -126l-24 12l67 132zM460 905l-83 -131l-25 12l74 136z" />
    <glyph glyph-name="uni0216" unicode="&#x216;" horiz-adv-x="644" 
d="M536 209q0 -100 -53.5 -159.5t-159.5 -59.5q-108 0 -161 59t-53 160v473h35v-470q0 -89 43.5 -139.5t135.5 -50.5q91 0 134 51t43 139v470h36v-473zM399.5 865.5q31.5 -26.5 38.5 -68.5l-25 -5q-9 33 -32.5 50.5t-58.5 17.5t-58 -17.5t-32 -50.5l-25 5q7 42 38.5 68.5
t76.5 26.5q46 0 77.5 -26.5z" />
    <glyph glyph-name="Umacron" unicode="&#x16a;" horiz-adv-x="644" 
d="M536 209q0 -100 -53.5 -159.5t-159.5 -59.5q-108 0 -161 59t-53 160v473h35v-470q0 -89 43.5 -139.5t135.5 -50.5q91 0 134 51t43 139v470h36v-473zM214 808v32h218v-32h-218z" />
    <glyph glyph-name="Uogonek" unicode="&#x172;" horiz-adv-x="644" 
d="M536 682v-473q0 -82 -35 -137t-106 -73q-63 -30 -90.5 -56t-27.5 -64q0 -25 18 -39.5t52 -14.5q22 0 53 6l-3 -33q-30 -6 -55 -6q-50 0 -75.5 23.5t-25.5 61.5q0 36 22.5 63t68.5 50h-9q-108 0 -161 59t-53 160v473h35v-470q0 -89 43.5 -139.5t135.5 -50.5q91 0 134 51
t43 139v470h36z" />
    <glyph glyph-name="uni01B1" unicode="&#x1b1;" horiz-adv-x="690" 
d="M202.5 30q-61.5 40 -95 115t-33.5 177q0 122 39.5 199.5t102.5 128.5h-120v32h172v-31q-158 -100 -158 -329q0 -95 29.5 -162.5t82.5 -102.5t123 -35t123 35t82.5 102.5t29.5 162.5q0 229 -158 329v31h172v-32h-120q66 -50 104 -126.5t38 -201.5q0 -102 -34 -177
t-95 -115t-142 -40t-142.5 40z" />
    <glyph glyph-name="Uring" unicode="&#x16e;" horiz-adv-x="644" 
d="M536 209q0 -100 -53.5 -159.5t-159.5 -59.5q-108 0 -161 59t-53 160v473h35v-470q0 -89 43.5 -139.5t135.5 -50.5q91 0 134 51t43 139v470h36v-473zM386.5 912.5q24.5 -23.5 24.5 -62.5q0 -38 -24.5 -61.5t-63.5 -23.5t-63.5 23.5t-24.5 61.5q0 39 24.5 62.5t63.5 23.5
t63.5 -23.5zM280.5 894.5q-14.5 -15.5 -14.5 -44.5q0 -28 14.5 -43.5t42.5 -15.5q27 0 42 15.5t15 43.5q0 29 -14.5 44.5t-42.5 15.5t-42.5 -15.5z" />
    <glyph glyph-name="Utilde" unicode="&#x168;" horiz-adv-x="644" 
d="M536 209q0 -100 -53.5 -159.5t-159.5 -59.5q-108 0 -161 59t-53 160v473h35v-470q0 -89 43.5 -139.5t135.5 -50.5q91 0 134 51t43 139v470h36v-473zM348 806.5q-16 6.5 -37 18.5q-3 1 -13 7t-18.5 8.5t-15.5 2.5q-17 0 -30.5 -8t-28.5 -28l-21 12q33 54 80 54
q12 0 23.5 -4.5t22 -9.5t13.5 -7q18 -11 32 -16.5t27 -5.5q16 0 29 9.5t29 33.5l21 -12q-31 -61 -79 -61q-18 0 -34 6.5z" />
    <glyph glyph-name="uni1E78" unicode="&#x1e78;" horiz-adv-x="644" 
d="M420 942l-186 -76l-10 22l178 89zM348 763.5q-16 6.5 -37 18.5q-3 1 -13 7t-18.5 8.5t-15.5 2.5q-17 0 -30.5 -8t-28.5 -28l-21 12q33 54 80 54q13 0 26 -5t33 -16q21 -11 33.5 -16.5t25.5 -5.5q16 0 29 9.5t29 33.5l21 -12q-30 -61 -79 -61q-18 0 -34 6.5zM536 209
q0 -100 -53.5 -159.5t-159.5 -59.5q-108 0 -161 59t-53 160v473h35v-470q0 -89 43.5 -139.5t135.5 -50.5q91 0 134 51t43 139v470h36v-473z" />
    <glyph glyph-name="V" unicode="V" horiz-adv-x="539" 
d="M291 0h-43l-224 682h37l209 -648l208 648h37z" />
    <glyph glyph-name="uni01B2" unicode="&#x1b2;" horiz-adv-x="634" 
d="M514 669q22 -24 22 -72v-308q0 -96 -31 -163.5t-85 -101.5t-124 -34q-86 0 -136.5 51t-50.5 139v502h35v-499q0 -76 41 -118.5t111 -42.5q60 0 106 30.5t72 91t26 148.5v305q0 32 -12 48.5t-38 16.5q-23 0 -43 -10l-13 24q24 17 58 17q40 0 62 -24z" />
    <glyph glyph-name="uni0245" unicode="&#x245;" horiz-adv-x="559" 
d="M535 0h-37l-219 654l-220 -654h-35l234 682h43z" />
    <glyph glyph-name="W" unicode="W" horiz-adv-x="798" 
d="M606 0h-42l-165 647l-166 -647h-41l-158 682h37l144 -647l163 647h42l165 -647l143 647h36z" />
    <glyph glyph-name="Wacute" unicode="&#x1e82;" horiz-adv-x="798" 
d="M606 0h-42l-165 647l-166 -647h-41l-158 682h37l144 -647l163 647h42l165 -647l143 647h36zM496 837l-186 -76l-10 22l178 89z" />
    <glyph glyph-name="Wcircumflex" unicode="&#x174;" horiz-adv-x="798" 
d="M606 0h-42l-165 647l-166 -647h-41l-158 682h37l144 -647l163 647h42l165 -647l143 647h36zM399 844l-118 -79l-17 19l126 95h19l124 -95l-16 -19z" />
    <glyph glyph-name="Wdieresis" unicode="&#x1e84;" horiz-adv-x="798" 
d="M606 0h-42l-165 647l-166 -647h-41l-158 682h37l144 -647l163 647h42l165 -647l143 647h36zM331 841.5q8 -7.5 8 -19.5q0 -11 -8 -19t-20 -8t-19.5 8t-7.5 19t7.5 19t19.5 8t20 -7.5zM506 841.5q8 -7.5 8 -19.5q0 -11 -8 -19t-20 -8q-13 0 -20.5 8t-7.5 19q0 12 7.5 19.5
t20.5 7.5q12 0 20 -7.5z" />
    <glyph glyph-name="Wgrave" unicode="&#x1e80;" horiz-adv-x="798" 
d="M606 0h-42l-165 647l-166 -647h-41l-158 682h37l144 -647l163 647h42l165 -647l143 647h36zM496 783l-10 -22l-186 76l17 35z" />
    <glyph glyph-name="uni2C72" unicode="&#x2c72;" horiz-adv-x="835" 
d="M606 0h-42l-165 647l-166 -647h-41l-158 682h37l144 -647l163 647h42l165 -647l126 570q10 46 36.5 67t62.5 21q26 0 46 -10t39 -28l-17 -20q-18 15 -32 21.5t-35 6.5q-27 0 -44.5 -14.5t-25.5 -51.5z" />
    <glyph glyph-name="uni01F7" unicode="&#x1f7;" horiz-adv-x="562" 
d="M460.5 646q48.5 -47 48.5 -129q0 -71 -32 -120t-85.5 -81t-131.5 -59l-106 -38v-219h-35v682h35v-59q35 32 78 51t100 19q80 0 128.5 -47zM417.5 375.5q54.5 50.5 54.5 140.5q0 69 -38.5 106.5t-103.5 37.5q-56 0 -98.5 -18.5t-77.5 -50.5v-340l109 39q100 35 154.5 85.5
z" />
    <glyph glyph-name="X" unicode="X" horiz-adv-x="492" 
d="M482 0h-40l-197 347l-192 -347h-39l210 369l-188 313h40l169 -291l167 291h38l-185 -312z" />
    <glyph glyph-name="Y" unicode="Y" horiz-adv-x="503" 
d="M271 271v-271h-36v270l-216 412h40l195 -382l191 382h39z" />
    <glyph glyph-name="Yacute" unicode="&#xdd;" horiz-adv-x="503" 
d="M271 271v-271h-36v270l-216 412h40l195 -382l191 382h39zM349 837l-186 -76l-10 22l178 89z" />
    <glyph glyph-name="Ycircumflex" unicode="&#x176;" horiz-adv-x="503" 
d="M271 271v-271h-36v270l-216 412h40l195 -382l191 382h39zM251 844l-118 -79l-17 19l126 95h19l124 -95l-16 -19z" />
    <glyph glyph-name="Ydieresis" unicode="&#x178;" horiz-adv-x="503" 
d="M271 271v-271h-36v270l-216 412h40l195 -382l191 382h39zM183 841.5q8 -7.5 8 -19.5q0 -11 -8 -19t-20 -8t-19.5 8t-7.5 19t7.5 19t19.5 8t20 -7.5zM358 841.5q8 -7.5 8 -19.5q0 -11 -8 -19t-20 -8q-13 0 -20.5 8t-7.5 19q0 12 7.5 19.5t20.5 7.5q12 0 20 -7.5z" />
    <glyph glyph-name="uni1EF4" unicode="&#x1ef4;" horiz-adv-x="503" 
d="M271 271v-271h-36v270l-216 412h40l195 -382l191 382h39zM232.5 -141q-7.5 8 -7.5 19t7.5 19t21.5 8q12 0 20 -8t8 -19t-8 -19t-20 -8q-14 0 -21.5 8z" />
    <glyph glyph-name="Ygrave" unicode="&#x1ef2;" horiz-adv-x="503" 
d="M271 271v-271h-36v270l-216 412h40l195 -382l191 382h39zM348 783l-10 -22l-186 76l17 35z" />
    <glyph glyph-name="uni01B3" unicode="&#x1b3;" horiz-adv-x="521" 
d="M235 270l-216 412h40l195 -382l143 312q19 42 42.5 61.5t57.5 19.5q46 0 84 -38l-17 -20q-18 15 -32 21.5t-34 6.5q-25 0 -40 -13t-33 -52l-154 -328v-270h-36v270z" />
    <glyph glyph-name="uni1EF6" unicode="&#x1ef6;" horiz-adv-x="503" 
d="M271 271v-271h-36v270l-216 412h40l195 -382l191 382h39zM233 847q68 2 68 50q0 20 -13 31.5t-36 11.5q-30 0 -58 -14l-12 24q33 19 72 19q38 0 60 -19.5t22 -51.5q0 -63 -70 -71v-45h-33v65z" />
    <glyph glyph-name="uni0232" unicode="&#x232;" horiz-adv-x="503" 
d="M271 271v-271h-36v270l-216 412h40l195 -382l191 382h39zM143 808v32h218v-32h-218z" />
    <glyph glyph-name="uni021C" unicode="&#x21c;" horiz-adv-x="498" 
d="M367.5 645.5q50.5 -47.5 50.5 -127.5q0 -66 -35 -105t-95 -53q68 -8 109.5 -47.5t41.5 -109.5q0 -71 -35.5 -123t-117.5 -92t-219 -69l-3 32q126 27 200 62t106.5 81.5t32.5 108.5q0 67 -47.5 104t-136.5 36l-60 -1l4 32h51q77 0 122.5 37.5t45.5 107.5q0 66 -40.5 103.5
t-113.5 37.5q-51 0 -94 -18.5t-85 -54.5l-20 22q46 42 94 63t106 21q88 0 138.5 -47.5z" />
    <glyph glyph-name="uni01A6" unicode="&#x1a6;" horiz-adv-x="579" 
d="M312 189h-158v-189h-35v682h35v-129h120q231 0 231 -180q0 -76 -40 -118.5t-115 -59.5l190 -324h-44zM281 221q91 0 139 37.5t48 114.5q0 74 -46 111t-151 37h-117v-300h127z" />
    <glyph glyph-name="uni024E" unicode="&#x24e;" horiz-adv-x="503" 
d="M435 588h49v-27h-63l-150 -290v-271h-36v270l-152 291h-64v27h49l-49 94h40l48 -94h291l47 94h39zM384 561h-264l134 -261z" />
    <glyph glyph-name="uni1EF8" unicode="&#x1ef8;" horiz-adv-x="503" 
d="M271 271v-271h-36v270l-216 412h40l195 -382l191 382h39zM277 806.5q-16 6.5 -37 18.5q-3 1 -13 7t-18.5 8.5t-15.5 2.5q-17 0 -30.5 -8t-28.5 -28l-21 12q33 54 80 54q12 0 23.5 -4.5t22 -9.5t13.5 -7q18 -11 32 -16.5t27 -5.5q16 0 29 9.5t29 33.5l21 -12
q-31 -61 -79 -61q-18 0 -34 6.5z" />
    <glyph glyph-name="Z" unicode="Z" horiz-adv-x="512" 
d="M462 652l-381 -619h370l-5 -33h-407v31l383 619h-345v32h385v-30z" />
    <glyph glyph-name="Zacute" unicode="&#x179;" horiz-adv-x="512" 
d="M462 652l-381 -619h370l-5 -33h-407v31l383 619h-345v32h385v-30zM355 837l-186 -76l-10 22l178 89z" />
    <glyph glyph-name="Zacute.loclPLK" horiz-adv-x="512" 
d="M462 652l-381 -619h370l-5 -33h-407v31l383 619h-345v32h385v-30zM356 875l-111 -145l-20 13l100 153z" />
    <glyph glyph-name="Zcaron" unicode="&#x17d;" horiz-adv-x="512" 
d="M462 652l-381 -619h370l-5 -33h-407v31l383 619h-345v32h385v-30zM391 853l-124 -95h-19l-126 95l17 20l118 -80l118 80z" />
    <glyph glyph-name="Zdotaccent" unicode="&#x17b;" horiz-adv-x="512" 
d="M462 652l-381 -619h370l-5 -33h-407v31l383 619h-345v32h385v-30zM278.5 852q7.5 -8 7.5 -19q0 -12 -7.5 -20t-21.5 -8q-12 0 -20 8t-8 20q0 11 8 19t20 8q14 0 21.5 -8z" />
    <glyph glyph-name="uni1E92" unicode="&#x1e92;" horiz-adv-x="512" 
d="M462 652l-381 -619h370l-5 -33h-407v31l383 619h-345v32h385v-30zM236.5 -141q-7.5 8 -7.5 19t7.5 19t21.5 8q12 0 20 -8t8 -19t-8 -19t-20 -8q-14 0 -21.5 8z" />
    <glyph glyph-name="uni0224" unicode="&#x224;" horiz-adv-x="512" 
d="M462 652l-381 -619h368v-113q0 -59 -29.5 -89.5t-77.5 -30.5q-53 0 -93 32l16 23q18 -12 35 -18t41 -6q32 0 52.5 21t20.5 69v79h-375v31l383 619h-345v32h385v-30z" />
    <glyph glyph-name="uni01B5" unicode="&#x1b5;" horiz-adv-x="512" 
d="M462 652l-181 -293h113v-31h-132l-181 -295h370l-5 -33h-407v31l184 297h-107v31h126l180 291h-345v32h385v-30z" />
    <glyph glyph-name="uniA7AD" unicode="&#xa7ad;" horiz-adv-x="492" 
d="M472 33l-6 -33h-318v275q-60 0 -92 22.5t-32 67.5q0 39 27.5 62t68.5 23q12 0 28 -2v234h35v-377q50 1 117 11l3 -28q-65 -11 -120 -12v-243h289zM80.5 319q22.5 -14 67.5 -15v115q-16 2 -28 2q-28 0 -45 -14t-17 -41q0 -33 22.5 -47z" />
    <glyph glyph-name="uni0299" unicode="&#x299;" horiz-adv-x="540" 
d="M437 244q34 -32 34 -91q0 -77 -56 -115t-150 -38h-151v515q80 16 151 16q86 0 131 -37.5t45 -97.5q0 -45 -26 -73.5t-71 -40.5q59 -6 93 -38zM148 489v-195h141q56 0 86.5 26.5t30.5 74.5t-33.5 76.5t-106.5 28.5q-61 0 -118 -11zM387.5 59q47.5 28 47.5 93
q0 113 -139 113h-148v-234h116q76 0 123.5 28z" />
    <glyph glyph-name="uni0262" unicode="&#x262;" horiz-adv-x="551" 
d="M377 519.5q37 -12.5 72 -38.5l-22 -24q-31 23 -62.5 33.5t-68.5 10.5q-50 0 -94 -25.5t-71 -78.5t-27 -133q0 -122 52 -181.5t143 -59.5q39 0 69.5 7t58.5 22v196h-121l-5 30h160v-243q-37 -21 -79 -32t-83 -11q-106 0 -168 68.5t-62 203.5q0 85 31.5 145.5t83.5 91.5
t111 31q45 0 82 -12.5z" />
    <glyph glyph-name="uni029B" unicode="&#x29b;" horiz-adv-x="551" 
d="M614 707l-16 -22q-18 12 -35.5 18t-41.5 6q-72 0 -72 -90v-138l-18 -21q-63 41 -135 41q-50 0 -94 -25.5t-71 -78.5t-27 -133q0 -122 52 -181.5t143 -59.5q39 0 69.5 7t58.5 22v196h-121l-5 30h160v-243q-37 -21 -79 -32t-83 -11q-106 0 -168 68.5t-62 203.5
q0 85 31.5 145.5t83.5 91.5t111 31q66 0 120 -30v117q0 59 28.5 89.5t77.5 30.5q53 0 93 -32z" />
    <glyph glyph-name="uni029C" unicode="&#x29c;" horiz-adv-x="585" 
d="M437 256h-289v-256h-34v520h34v-233h289v233h34v-520h-34v256z" />
    <glyph glyph-name="uni026A" unicode="&#x26a;" horiz-adv-x="311" 
d="M172 491v-460h109v-31h-251v31h108v460h-108v29h251v-29h-109z" />
    <glyph glyph-name="uni029F" unicode="&#x29f;" horiz-adv-x="402" 
d="M148 31h244l-6 -31h-272v520h34v-489z" />
    <glyph glyph-name="uni0274" unicode="&#x274;" horiz-adv-x="586" 
d="M472 0h-43l-286 487q3 -61 3 -195v-292h-32v520h43l286 -487l-1 30q-3 105 -3 144v313h33v-520z" />
    <glyph glyph-name="uni0276" unicode="&#x276;" horiz-adv-x="716" 
d="M667 0h-324q-29 -10 -62 -10q-99 0 -155.5 71.5t-56.5 197.5q0 128 57.5 200t155.5 72q35 0 65 -11h315l-5 -30h-256q39 -26 64 -78t29 -123h130v-30h-130q-1 -85 -27.5 -142t-70.5 -86h271v-31zM151.5 83q46.5 -62 129.5 -62t130.5 64t47.5 181q0 112 -48 173t-129 61
q-83 0 -130 -62t-47 -179q0 -114 46.5 -176z" />
    <glyph glyph-name="uni0280" unicode="&#x280;" horiz-adv-x="508" 
d="M271 226h-123v-226h-34v520h123q101 0 150.5 -37.5t49.5 -109.5q0 -112 -131 -142l153 -231h-40zM243 256q77 0 118 30t41 87q0 59 -39.5 88t-128.5 29h-86v-234h95z" />
    <glyph glyph-name="uni0281" unicode="&#x281;" horiz-adv-x="508" 
d="M402.5 243q34.5 -35 34.5 -93q0 -150 -200 -150h-123v520h34v-226h126l148 226h37l-152 -230q61 -12 95.5 -47zM362.5 60.5q39.5 29.5 39.5 89.5q0 114 -159 114h-95v-233h86q89 0 128.5 29.5z" />
    <glyph glyph-name="uni028F" unicode="&#x28f;" horiz-adv-x="405" 
d="M221 211v-211h-34v210l-178 310h38l158 -280l152 280h38z" />
    <glyph glyph-name="a" unicode="a" horiz-adv-x="531" 
d="M428 43.5q10 -19.5 34 -29.5l-8 -24q-32 9 -48 31t-17 63q-58 -94 -167 -94q-74 0 -116 42t-42 112q0 80 55.5 123t150.5 43h114v58q0 68 -29 100t-100 32q-60 0 -142 -32l-9 28q83 35 153 35q83 0 122 -40t39 -120v-260q0 -48 10 -67.5zM384 123v158h-107
q-84 0 -130.5 -34.5t-46.5 -101.5q0 -59 33 -91.5t91 -32.5q106 0 160 102z" />
    <glyph glyph-name="aacute" unicode="&#xe1;" horiz-adv-x="531" 
d="M428 43.5q10 -19.5 34 -29.5l-8 -24q-32 9 -48 31t-17 63q-58 -94 -167 -94q-74 0 -116 42t-42 112q0 80 55.5 123t150.5 43h114v58q0 68 -29 100t-100 32q-60 0 -142 -32l-9 28q83 35 153 35q83 0 122 -40t39 -120v-260q0 -48 10 -67.5zM384 123v158h-107
q-84 0 -130.5 -34.5t-46.5 -101.5q0 -59 33 -91.5t91 -32.5q106 0 160 102zM344 734l-184 -84l-12 23l180 96z" />
    <glyph glyph-name="abreve" unicode="&#x103;" horiz-adv-x="531" 
d="M428 43.5q10 -19.5 34 -29.5l-8 -24q-32 9 -48 31t-17 63q-58 -94 -167 -94q-74 0 -116 42t-42 112q0 80 55.5 123t150.5 43h114v58q0 68 -29 100t-100 32q-60 0 -142 -32l-9 28q83 35 153 35q83 0 122 -40t39 -120v-260q0 -48 10 -67.5zM384 123v158h-107
q-84 0 -130.5 -34.5t-46.5 -101.5q0 -59 33 -91.5t91 -32.5q106 0 160 102zM179.5 686q-31.5 26 -38.5 68l25 6q9 -33 32 -51t58 -18t58.5 18t32.5 51l25 -6q-7 -42 -38.5 -68t-77.5 -26q-45 0 -76.5 26z" />
    <glyph glyph-name="uni1EAF" unicode="&#x1eaf;" horiz-adv-x="531" 
d="M256 710l-18 16l101 123l26 -24zM180 619.5q-32 24.5 -39 60.5l25 5q9 -26 32.5 -42t57.5 -16t58 16t33 42l25 -5q-7 -36 -39 -60.5t-77 -24.5q-44 0 -76 24.5zM428 43.5q10 -19.5 34 -29.5l-8 -24q-32 9 -48 31t-17 63q-58 -94 -167 -94q-74 0 -116 42t-42 112
q0 80 55.5 123t150.5 43h114v58q0 68 -29 100t-100 32q-60 0 -142 -32l-9 28q83 35 153 35q83 0 122 -40t39 -120v-260q0 -48 10 -67.5zM384 123v158h-107q-84 0 -130.5 -34.5t-46.5 -101.5q0 -59 33 -91.5t91 -32.5q106 0 160 102z" />
    <glyph glyph-name="uni1EB7" unicode="&#x1eb7;" horiz-adv-x="531" 
d="M428 43.5q10 -19.5 34 -29.5l-8 -24q-32 9 -48 31t-17 63q-58 -94 -167 -94q-74 0 -116 42t-42 112q0 80 55.5 123t150.5 43h114v58q0 68 -29 100t-100 32q-60 0 -142 -32l-9 28q83 35 153 35q83 0 122 -40t39 -120v-260q0 -48 10 -67.5zM384 123v158h-107
q-84 0 -130.5 -34.5t-46.5 -101.5q0 -59 33 -91.5t91 -32.5q106 0 160 102zM179.5 686q-31.5 26 -38.5 68l25 6q9 -33 32 -51t58 -18t58.5 18t32.5 51l25 -6q-7 -42 -38.5 -68t-77.5 -26q-45 0 -76.5 26zM235.5 -141q-7.5 8 -7.5 19t7.5 19t21.5 8q12 0 20 -8t8 -19t-8 -19
t-20 -8q-14 0 -21.5 8z" />
    <glyph glyph-name="uni1EB1" unicode="&#x1eb1;" horiz-adv-x="531" 
d="M269 710l-109 115l26 24l101 -123zM180 619.5q-32 24.5 -39 60.5l25 5q9 -26 32.5 -42t57.5 -16t58 16t33 42l25 -5q-7 -36 -39 -60.5t-77 -24.5q-44 0 -76 24.5zM428 43.5q10 -19.5 34 -29.5l-8 -24q-32 9 -48 31t-17 63q-58 -94 -167 -94q-74 0 -116 42t-42 112
q0 80 55.5 123t150.5 43h114v58q0 68 -29 100t-100 32q-60 0 -142 -32l-9 28q83 35 153 35q83 0 122 -40t39 -120v-260q0 -48 10 -67.5zM384 123v158h-107q-84 0 -130.5 -34.5t-46.5 -101.5q0 -59 33 -91.5t91 -32.5q106 0 160 102z" />
    <glyph glyph-name="uni1EB3" unicode="&#x1eb3;" horiz-adv-x="531" 
d="M201 840l-12 24q33 19 72 19q38 0 60 -19.5t22 -51.5q0 -63 -70 -71v-56h-33v76q68 2 68 49q0 21 -13 32.5t-36 11.5q-30 0 -58 -14zM180 619.5q-32 24.5 -39 60.5l25 5q9 -26 32.5 -42t57.5 -16t58 16t33 42l25 -5q-7 -36 -39 -60.5t-77 -24.5q-44 0 -76 24.5zM428 43.5
q10 -19.5 34 -29.5l-8 -24q-32 9 -48 31t-17 63q-58 -94 -167 -94q-74 0 -116 42t-42 112q0 80 55.5 123t150.5 43h114v58q0 68 -29 100t-100 32q-60 0 -142 -32l-9 28q83 35 153 35q83 0 122 -40t39 -120v-260q0 -48 10 -67.5zM384 123v158h-107q-84 0 -130.5 -34.5
t-46.5 -101.5q0 -59 33 -91.5t91 -32.5q106 0 160 102z" />
    <glyph glyph-name="uni1EB5" unicode="&#x1eb5;" horiz-adv-x="531" 
d="M170.5 774q-13.5 -8 -28.5 -28l-21 12q33 54 80 54q13 0 26 -5t33 -16q21 -11 33.5 -16.5t25.5 -5.5q16 0 29 9.5t29 33.5l21 -12q-30 -61 -79 -61q-18 0 -34 6.5t-37 18.5q-3 1 -13 7t-18.5 8.5t-15.5 2.5q-17 0 -30.5 -8zM314 643q24 16 33 42l25 -5q-7 -36 -39 -60.5
t-77 -24.5q-44 0 -76 24.5t-39 60.5l25 5q9 -26 32.5 -42t57.5 -16t58 16zM428 43.5q10 -19.5 34 -29.5l-8 -24q-32 9 -48 31t-17 63q-58 -94 -167 -94q-74 0 -116 42t-42 112q0 80 55.5 123t150.5 43h114v58q0 68 -29 100t-100 32q-60 0 -142 -32l-9 28q83 35 153 35
q83 0 122 -40t39 -120v-260q0 -48 10 -67.5zM384 123v158h-107q-84 0 -130.5 -34.5t-46.5 -101.5q0 -59 33 -91.5t91 -32.5q106 0 160 102z" />
    <glyph glyph-name="uni01CE" unicode="&#x1ce;" horiz-adv-x="531" 
d="M428 43.5q10 -19.5 34 -29.5l-8 -24q-32 9 -48 31t-17 63q-58 -94 -167 -94q-74 0 -116 42t-42 112q0 80 55.5 123t150.5 43h114v58q0 68 -29 100t-100 32q-60 0 -142 -32l-9 28q83 35 153 35q83 0 122 -40t39 -120v-260q0 -48 10 -67.5zM384 123v158h-107
q-84 0 -130.5 -34.5t-46.5 -101.5q0 -59 33 -91.5t91 -32.5q106 0 160 102zM390 738l-124 -101h-19l-126 101l17 20l118 -85l118 85z" />
    <glyph glyph-name="acircumflex" unicode="&#xe2;" horiz-adv-x="531" 
d="M428 43.5q10 -19.5 34 -29.5l-8 -24q-32 9 -48 31t-17 63q-58 -94 -167 -94q-74 0 -116 42t-42 112q0 80 55.5 123t150.5 43h114v58q0 68 -29 100t-100 32q-60 0 -142 -32l-9 28q83 35 153 35q83 0 122 -40t39 -120v-260q0 -48 10 -67.5zM384 123v158h-107
q-84 0 -130.5 -34.5t-46.5 -101.5q0 -59 33 -91.5t91 -32.5q106 0 160 102zM121 670l125 100h19l125 -100l-16 -20l-119 85l-117 -85z" />
    <glyph glyph-name="uni1EA5" unicode="&#x1ea5;" horiz-adv-x="531" 
d="M360 679l-18 16l101 123l26 -24zM138 586l-17 19l126 95h19l124 -95l-16 -19l-118 79zM428 43.5q10 -19.5 34 -29.5l-8 -24q-32 9 -48 31t-17 63q-58 -94 -167 -94q-74 0 -116 42t-42 112q0 80 55.5 123t150.5 43h114v58q0 68 -29 100t-100 32q-60 0 -142 -32l-9 28
q83 35 153 35q83 0 122 -40t39 -120v-260q0 -48 10 -67.5zM384 123v158h-107q-84 0 -130.5 -34.5t-46.5 -101.5q0 -59 33 -91.5t91 -32.5q106 0 160 102z" />
    <glyph glyph-name="uni1EAD" unicode="&#x1ead;" horiz-adv-x="531" 
d="M428 43.5q10 -19.5 34 -29.5l-8 -24q-32 9 -48 31t-17 63q-58 -94 -167 -94q-74 0 -116 42t-42 112q0 80 55.5 123t150.5 43h114v58q0 68 -29 100t-100 32q-60 0 -142 -32l-9 28q83 35 153 35q83 0 122 -40t39 -120v-260q0 -48 10 -67.5zM384 123v158h-107
q-84 0 -130.5 -34.5t-46.5 -101.5q0 -59 33 -91.5t91 -32.5q106 0 160 102zM121 670l125 100h19l125 -100l-16 -20l-119 85l-117 -85zM235.5 -141q-7.5 8 -7.5 19t7.5 19t21.5 8q12 0 20 -8t8 -19t-8 -19t-20 -8q-14 0 -21.5 8z" />
    <glyph glyph-name="uni1EA7" unicode="&#x1ea7;" horiz-adv-x="531" 
d="M159 679l-109 115l26 24l101 -123zM121 605l126 95h19l124 -95l-16 -19l-118 79l-118 -79zM428 43.5q10 -19.5 34 -29.5l-8 -24q-32 9 -48 31t-17 63q-58 -94 -167 -94q-74 0 -116 42t-42 112q0 80 55.5 123t150.5 43h114v58q0 68 -29 100t-100 32q-60 0 -142 -32l-9 28
q83 35 153 35q83 0 122 -40t39 -120v-260q0 -48 10 -67.5zM384 123v158h-107q-84 0 -130.5 -34.5t-46.5 -101.5q0 -59 33 -91.5t91 -32.5q106 0 160 102z" />
    <glyph glyph-name="uni1EA9" unicode="&#x1ea9;" horiz-adv-x="531" 
d="M312 825l-12 24q33 19 72 19q38 0 60 -19.5t22 -51.5q0 -63 -70 -71v-56h-33v76q68 2 68 49q0 21 -13 32.5t-36 11.5q-30 0 -58 -14zM138 586l-17 19l126 95h19l124 -95l-16 -19l-118 79zM428 43.5q10 -19.5 34 -29.5l-8 -24q-32 9 -48 31t-17 63q-58 -94 -167 -94
q-74 0 -116 42t-42 112q0 80 55.5 123t150.5 43h114v58q0 68 -29 100t-100 32q-60 0 -142 -32l-9 28q83 35 153 35q83 0 122 -40t39 -120v-260q0 -48 10 -67.5zM384 123v158h-107q-84 0 -130.5 -34.5t-46.5 -101.5q0 -59 33 -91.5t91 -32.5q106 0 160 102z" />
    <glyph glyph-name="uni1EAB" unicode="&#x1eab;" horiz-adv-x="531" 
d="M166.5 769q-13.5 -8 -28.5 -28l-21 12q33 54 80 54q13 0 26 -5t33 -16q21 -11 33.5 -16.5t25.5 -5.5q16 0 29 9.5t29 33.5l21 -12q-30 -61 -79 -61q-18 0 -34 6.5t-37 18.5q-3 1 -13 7t-18.5 8.5t-15.5 2.5q-17 0 -30.5 -8zM266 690l124 -95l-16 -19l-118 79l-118 -79
l-17 19l126 95h19zM428 43.5q10 -19.5 34 -29.5l-8 -24q-32 9 -48 31t-17 63q-58 -94 -167 -94q-74 0 -116 42t-42 112q0 80 55.5 123t150.5 43h114v58q0 68 -29 100t-100 32q-60 0 -142 -32l-9 28q83 35 153 35q83 0 122 -40t39 -120v-260q0 -48 10 -67.5zM384 123v158
h-107q-84 0 -130.5 -34.5t-46.5 -101.5q0 -59 33 -91.5t91 -32.5q106 0 160 102z" />
    <glyph glyph-name="uni0201" unicode="&#x201;" horiz-adv-x="531" 
d="M428 43.5q10 -19.5 34 -29.5l-8 -24q-32 9 -48 31t-17 63q-58 -94 -167 -94q-74 0 -116 42t-42 112q0 80 55.5 123t150.5 43h114v58q0 68 -29 100t-100 32q-60 0 -142 -32l-9 28q83 35 153 35q83 0 122 -40t39 -120v-260q0 -48 10 -67.5zM384 123v158h-107
q-84 0 -130.5 -34.5t-46.5 -101.5q0 -59 33 -91.5t91 -32.5q106 0 160 102zM227 660l-24 -12l-84 131l34 17zM333 664l-24 -12l-76 126l34 18z" />
    <glyph glyph-name="adieresis" unicode="&#xe4;" horiz-adv-x="531" 
d="M428 43.5q10 -19.5 34 -29.5l-8 -24q-32 9 -48 31t-17 63q-58 -94 -167 -94q-74 0 -116 42t-42 112q0 80 55.5 123t150.5 43h114v58q0 68 -29 100t-100 32q-60 0 -142 -32l-9 28q83 35 153 35q83 0 122 -40t39 -120v-260q0 -48 10 -67.5zM384 123v158h-107
q-84 0 -130.5 -34.5t-46.5 -101.5q0 -59 33 -91.5t91 -32.5q106 0 160 102zM188 715.5q8 -7.5 8 -19.5q0 -11 -8 -19t-20 -8t-19.5 8t-7.5 19t7.5 19t19.5 8t20 -7.5zM363 715.5q8 -7.5 8 -19.5q0 -11 -8 -19t-20 -8q-13 0 -20.5 8t-7.5 19q0 12 7.5 19.5t20.5 7.5
q12 0 20 -7.5z" />
    <glyph glyph-name="uni01DF" unicode="&#x1df;" horiz-adv-x="531" 
d="M367 759h-218v32h218v-32zM148.5 647q-7.5 8 -7.5 19t7.5 19t19.5 8q13 0 20.5 -7.5t7.5 -19.5q0 -11 -7.5 -19t-20.5 -8q-12 0 -19.5 8zM363.5 685.5q7.5 -7.5 7.5 -19.5q0 -11 -7.5 -19t-20.5 -8q-12 0 -20 8t-8 19q0 12 8 19.5t20 7.5q13 0 20.5 -7.5zM428 43.5
q10 -19.5 34 -29.5l-8 -24q-32 9 -48 31t-17 63q-58 -94 -167 -94q-74 0 -116 42t-42 112q0 80 55.5 123t150.5 43h114v58q0 68 -29 100t-100 32q-60 0 -142 -32l-9 28q83 35 153 35q83 0 122 -40t39 -120v-260q0 -48 10 -67.5zM384 123v158h-107q-84 0 -130.5 -34.5
t-46.5 -101.5q0 -59 33 -91.5t91 -32.5q106 0 160 102z" />
    <glyph glyph-name="uni0227" unicode="&#x227;" horiz-adv-x="531" 
d="M428 43.5q10 -19.5 34 -29.5l-8 -24q-32 9 -48 31t-17 63q-58 -94 -167 -94q-74 0 -116 42t-42 112q0 80 55.5 123t150.5 43h114v58q0 68 -29 100t-100 32q-60 0 -142 -32l-9 28q83 35 153 35q83 0 122 -40t39 -120v-260q0 -48 10 -67.5zM384 123v158h-107
q-84 0 -130.5 -34.5t-46.5 -101.5q0 -59 33 -91.5t91 -32.5q106 0 160 102zM277.5 726q7.5 -8 7.5 -19q0 -12 -7.5 -20t-21.5 -8q-12 0 -20 8t-8 20q0 11 8 19t20 8q14 0 21.5 -8z" />
    <glyph glyph-name="uni1EA1" unicode="&#x1ea1;" horiz-adv-x="531" 
d="M428 43.5q10 -19.5 34 -29.5l-8 -24q-32 9 -48 31t-17 63q-58 -94 -167 -94q-74 0 -116 42t-42 112q0 80 55.5 123t150.5 43h114v58q0 68 -29 100t-100 32q-60 0 -142 -32l-9 28q83 35 153 35q83 0 122 -40t39 -120v-260q0 -48 10 -67.5zM384 123v158h-107
q-84 0 -130.5 -34.5t-46.5 -101.5q0 -59 33 -91.5t91 -32.5q106 0 160 102zM235.5 -141q-7.5 8 -7.5 19t7.5 19t21.5 8q12 0 20 -8t8 -19t-8 -19t-20 -8q-14 0 -21.5 8z" />
    <glyph glyph-name="uni01E1" unicode="&#x1e1;" horiz-adv-x="531" 
d="M364 749h-218v32h218v-32zM234 676q8 8 20 8q14 0 21.5 -8t7.5 -19q0 -12 -7.5 -20t-21.5 -8q-12 0 -20 8t-8 20q0 11 8 19zM428 43.5q10 -19.5 34 -29.5l-8 -24q-32 9 -48 31t-17 63q-58 -94 -167 -94q-74 0 -116 42t-42 112q0 80 55.5 123t150.5 43h114v58
q0 68 -29 100t-100 32q-60 0 -142 -32l-9 28q83 35 153 35q83 0 122 -40t39 -120v-260q0 -48 10 -67.5zM384 123v158h-107q-84 0 -130.5 -34.5t-46.5 -101.5q0 -59 33 -91.5t91 -32.5q106 0 160 102z" />
    <glyph glyph-name="agrave" unicode="&#xe0;" horiz-adv-x="531" 
d="M428 43.5q10 -19.5 34 -29.5l-8 -24q-32 9 -48 31t-17 63q-58 -94 -167 -94q-74 0 -116 42t-42 112q0 80 55.5 123t150.5 43h114v58q0 68 -29 100t-100 32q-60 0 -142 -32l-9 28q83 35 153 35q83 0 122 -40t39 -120v-260q0 -48 10 -67.5zM384 123v158h-107
q-84 0 -130.5 -34.5t-46.5 -101.5q0 -59 33 -91.5t91 -32.5q106 0 160 102zM354 673l-12 -23l-184 84l16 35z" />
    <glyph glyph-name="uni1EA3" unicode="&#x1ea3;" horiz-adv-x="531" 
d="M428 43.5q10 -19.5 34 -29.5l-8 -24q-32 9 -48 31t-17 63q-58 -94 -167 -94q-74 0 -116 42t-42 112q0 80 55.5 123t150.5 43h114v58q0 68 -29 100t-100 32q-60 0 -142 -32l-9 28q83 35 153 35q83 0 122 -40t39 -120v-260q0 -48 10 -67.5zM384 123v158h-107
q-84 0 -130.5 -34.5t-46.5 -101.5q0 -59 33 -91.5t91 -32.5q106 0 160 102zM238 696q68 2 68 49q0 21 -13 32.5t-36 11.5q-30 0 -58 -14l-12 24q33 19 72 19q38 0 60 -19.5t22 -51.5q0 -63 -70 -71v-56h-33v76z" />
    <glyph glyph-name="uni0203" unicode="&#x203;" horiz-adv-x="531" 
d="M428 43.5q10 -19.5 34 -29.5l-8 -24q-32 9 -48 31t-17 63q-58 -94 -167 -94q-74 0 -116 42t-42 112q0 80 55.5 123t150.5 43h114v58q0 68 -29 100t-100 32q-60 0 -142 -32l-9 28q83 35 153 35q83 0 122 -40t39 -120v-260q0 -48 10 -67.5zM384 123v158h-107
q-84 0 -130.5 -34.5t-46.5 -101.5q0 -59 33 -91.5t91 -32.5q106 0 160 102zM333.5 703.5q31.5 -26.5 38.5 -68.5l-25 -5q-9 33 -32.5 50.5t-58.5 17.5t-58 -17.5t-32 -50.5l-25 5q7 42 38.5 68.5t76.5 26.5q46 0 77.5 -26.5z" />
    <glyph glyph-name="uni0251" unicode="&#x251;" horiz-adv-x="575" 
d="M468.5 51q10.5 -18 37.5 -28l-11 -28q-34 11 -50 32t-20 58q-24 -42 -62.5 -68.5t-94.5 -26.5q-92 0 -145.5 71.5t-53.5 196.5q0 80 25.5 142t72.5 96.5t109 34.5q94 0 149 -78l3 67h30v-410q0 -41 10.5 -59zM359 48.5q37 27.5 65 82.5v282q-57 87 -147 87
q-50 0 -89.5 -29t-61 -83.5t-21.5 -129.5q0 -113 43.5 -175t120.5 -62q53 0 90 27.5z" />
    <glyph glyph-name="uni0252" unicode="&#x252;" horiz-adv-x="575" 
d="M452.5 458.5q53.5 -71.5 53.5 -196.5q0 -80 -25.5 -142t-72.5 -96.5t-109 -34.5q-92 0 -149 78l-3 -67h-30v410q0 41 -10.5 59t-37.5 28l11 28q35 -12 51 -32.5t19 -57.5q24 42 62.5 68.5t94.5 26.5q92 0 145.5 -71.5zM387 48.5q39 28.5 61 82.5t22 128q0 114 -43 177
t-121 63q-54 0 -90.5 -27.5t-64.5 -83.5v-281q56 -87 147 -87q50 0 89 28.5z" />
    <glyph glyph-name="amacron" unicode="&#x101;" horiz-adv-x="531" 
d="M428 43.5q10 -19.5 34 -29.5l-8 -24q-32 9 -48 31t-17 63q-58 -94 -167 -94q-74 0 -116 42t-42 112q0 80 55.5 123t150.5 43h114v58q0 68 -29 100t-100 32q-60 0 -142 -32l-9 28q83 35 153 35q83 0 122 -40t39 -120v-260q0 -48 10 -67.5zM384 123v158h-107
q-84 0 -130.5 -34.5t-46.5 -101.5q0 -59 33 -91.5t91 -32.5q106 0 160 102zM147 682v32h218v-32h-218z" />
    <glyph glyph-name="aogonek" unicode="&#x105;" horiz-adv-x="531" 
d="M349.5 -170.5q16.5 -14.5 50.5 -14.5q24 0 56 6l-3 -33q-30 -6 -55 -6q-50 0 -75.5 23.5t-25.5 61.5q0 42 31.5 74t97.5 61q-18 11 -27 30.5t-10 51.5q-58 -94 -167 -94q-74 0 -116 42t-42 112q0 80 55.5 123t150.5 43h114v58q0 68 -29 100t-100 32q-60 0 -142 -32l-9 28
q83 35 153 35q83 0 122 -40t39 -120v-260q0 -48 10 -67.5t34 -29.5l-8 -24q-65 -30 -93 -56t-28 -65q0 -25 16.5 -39.5zM384 123v158h-107q-84 0 -130.5 -34.5t-46.5 -101.5q0 -59 33 -91.5t91 -32.5q106 0 160 102z" />
    <glyph glyph-name="aring" unicode="&#xe5;" horiz-adv-x="531" 
d="M428 43.5q10 -19.5 34 -29.5l-8 -24q-32 9 -48 31t-17 63q-58 -94 -167 -94q-74 0 -116 42t-42 112q0 80 55.5 123t150.5 43h114v58q0 68 -29 100t-100 32q-60 0 -142 -32l-9 28q83 35 153 35q83 0 122 -40t39 -120v-260q0 -48 10 -67.5zM384 123v158h-107
q-84 0 -130.5 -34.5t-46.5 -101.5q0 -59 33 -91.5t91 -32.5q106 0 160 102zM320.5 786.5q24.5 -23.5 24.5 -62.5q0 -38 -24.5 -61.5t-63.5 -23.5t-63.5 23.5t-24.5 61.5q0 39 24.5 62.5t63.5 23.5t63.5 -23.5zM214.5 768.5q-14.5 -15.5 -14.5 -44.5q0 -28 14.5 -43.5
t42.5 -15.5q27 0 42 15.5t15 43.5q0 29 -14.5 44.5t-42.5 15.5t-42.5 -15.5z" />
    <glyph glyph-name="aringacute" unicode="&#x1fb;" horiz-adv-x="531" 
d="M171 770l-10 22l178 89l18 -35zM194.5 737.5q24.5 23.5 63.5 23.5t63.5 -23.5t24.5 -62.5q0 -38 -24.5 -61.5t-63.5 -23.5t-63.5 23.5t-24.5 61.5q0 39 24.5 62.5zM300.5 719.5q-14.5 15.5 -42.5 15.5t-42.5 -15.5t-14.5 -44.5q0 -28 14.5 -43.5t42.5 -15.5q27 0 42 15.5
t15 43.5q0 29 -14.5 44.5zM428 43.5q10 -19.5 34 -29.5l-8 -24q-32 9 -48 31t-17 63q-58 -94 -167 -94q-74 0 -116 42t-42 112q0 80 55.5 123t150.5 43h114v58q0 68 -29 100t-100 32q-60 0 -142 -32l-9 28q83 35 153 35q83 0 122 -40t39 -120v-260q0 -48 10 -67.5zM384 123
v158h-107q-84 0 -130.5 -34.5t-46.5 -101.5q0 -59 33 -91.5t91 -32.5q106 0 160 102z" />
    <glyph glyph-name="uni2C65" unicode="&#x2c65;" horiz-adv-x="531" 
d="M428 43.5q10 -19.5 34 -29.5l-8 -24q-32 9 -48 31t-17 63q-58 -94 -167 -94q-11 0 -17 1l-16 -61l-24 6l16 58q-55 11 -86 51t-31 99q0 79 55 122.5t149 44.5l50 180q-25 9 -63 9q-60 0 -142 -32l-9 28q83 35 153 35q37 0 69 -10l19 68l23 -6l-20 -70q70 -35 70 -142
v-260q0 -48 10 -67.5zM373.5 437.5q-10.5 27.5 -34.5 42.5l-46 -169h91v57q0 42 -10.5 69.5zM384 123v158h-99l-72 -260h11q106 0 160 102zM123.5 64.5q23.5 -31.5 65.5 -40.5l71 256q-76 -3 -118 -37.5t-42 -97.5q0 -49 23.5 -80.5z" />
    <glyph glyph-name="atilde" unicode="&#xe3;" horiz-adv-x="531" 
d="M428 43.5q10 -19.5 34 -29.5l-8 -24q-32 9 -48 31t-17 63q-58 -94 -167 -94q-74 0 -116 42t-42 112q0 80 55.5 123t150.5 43h114v58q0 68 -29 100t-100 32q-60 0 -142 -32l-9 28q83 35 153 35q83 0 122 -40t39 -120v-260q0 -48 10 -67.5zM384 123v158h-107
q-84 0 -130.5 -34.5t-46.5 -101.5q0 -59 33 -91.5t91 -32.5q106 0 160 102zM281 680.5q-16 6.5 -37 18.5q-3 1 -13 7t-18.5 8.5t-15.5 2.5q-17 0 -30.5 -8t-28.5 -28l-21 12q33 54 80 54q12 0 23.5 -4.5t22 -9.5t13.5 -7q18 -11 32 -16.5t27 -5.5q16 0 29 9.5t29 33.5
l21 -12q-31 -61 -79 -61q-18 0 -34 6.5z" />
    <glyph glyph-name="uni0250" unicode="&#x250;" horiz-adv-x="531" 
d="M418 52l9 -28q-83 -35 -153 -35q-83 0 -122 40t-39 120v260q0 48 -10 67.5t-34 29.5l8 24q32 -9 48 -30t18 -63q56 93 166 93q74 0 116 -42t42 -112q0 -80 -55.5 -123t-150.5 -43h-114v-58q0 -68 29 -100t100 -32q60 0 142 32zM147 398v-159h107q84 0 130.5 34.5
t46.5 101.5q0 59 -33 91.5t-91 32.5q-105 0 -160 -101z" />
    <glyph glyph-name="ae" unicode="&#xe6;" horiz-adv-x="846" 
d="M779 243h-359q5 -111 52.5 -166.5t125.5 -55.5q43 0 75 13t69 42l18 -24q-36 -31 -75 -46.5t-87 -15.5q-63 0 -110.5 29.5t-73.5 85.5q-43 -61 -88.5 -88t-102.5 -27q-74 0 -116.5 42t-42.5 112q0 80 56 123.5t151 43.5h113v57q0 68 -29 100t-99 32q-62 0 -142 -32
l-10 28q42 18 78.5 26.5t74.5 8.5q72 0 111 -30.5t48 -90.5q51 121 175 121q92 0 141 -66.5t49 -181.5q0 -22 -2 -40zM747 295q0 94 -39 149.5t-117 55.5q-73 0 -120.5 -57t-50.5 -171h327v23zM319 48q41 27 83 88q-18 51 -18 120v25h-107q-84 0 -130.5 -34.5t-46.5 -101.5
q0 -59 33 -91.5t91 -32.5q54 0 95 27z" />
    <glyph glyph-name="aeacute" unicode="&#x1fd;" horiz-adv-x="846" 
d="M779 243h-359q5 -111 52.5 -166.5t125.5 -55.5q43 0 75 13t69 42l18 -24q-36 -31 -75 -46.5t-87 -15.5q-63 0 -110.5 29.5t-73.5 85.5q-43 -61 -88.5 -88t-102.5 -27q-74 0 -116.5 42t-42.5 112q0 80 56 123.5t151 43.5h113v57q0 68 -29 100t-99 32q-62 0 -142 -32
l-10 28q42 18 78.5 26.5t74.5 8.5q72 0 111 -30.5t48 -90.5q51 121 175 121q92 0 141 -66.5t49 -181.5q0 -22 -2 -40zM747 295q0 94 -39 149.5t-117 55.5q-73 0 -120.5 -57t-50.5 -171h327v23zM319 48q41 27 83 88q-18 51 -18 120v25h-107q-84 0 -130.5 -34.5t-46.5 -101.5
q0 -59 33 -91.5t91 -32.5q54 0 95 27zM511 734l-184 -84l-12 23l180 96z" />
    <glyph glyph-name="uni01E3" unicode="&#x1e3;" horiz-adv-x="846" 
d="M779 243h-359q5 -111 52.5 -166.5t125.5 -55.5q43 0 75 13t69 42l18 -24q-36 -31 -75 -46.5t-87 -15.5q-63 0 -110.5 29.5t-73.5 85.5q-43 -61 -88.5 -88t-102.5 -27q-74 0 -116.5 42t-42.5 112q0 80 56 123.5t151 43.5h113v57q0 68 -29 100t-99 32q-62 0 -142 -32
l-10 28q42 18 78.5 26.5t74.5 8.5q72 0 111 -30.5t48 -90.5q51 121 175 121q92 0 141 -66.5t49 -181.5q0 -22 -2 -40zM747 295q0 94 -39 149.5t-117 55.5q-73 0 -120.5 -57t-50.5 -171h327v23zM319 48q41 27 83 88q-18 51 -18 120v25h-107q-84 0 -130.5 -34.5t-46.5 -101.5
q0 -59 33 -91.5t91 -32.5q54 0 95 27zM314 682v32h218v-32h-218z" />
    <glyph glyph-name="b" unicode="b" horiz-adv-x="572" 
d="M449 462q48 -69 48 -198t-50 -201.5t-143 -72.5q-51 0 -91.5 23t-65.5 59l-4 -72h-29v734l34 5v-296q30 41 71 64.5t92 23.5q90 0 138 -69zM420.5 83.5q41.5 62.5 41.5 180.5q0 117 -39 176.5t-114 59.5q-52 0 -89 -24.5t-72 -71.5v-293q61 -90 154 -90q77 0 118.5 62.5z
" />
    <glyph glyph-name="uni1E03" unicode="&#x1e03;" horiz-adv-x="572" 
d="M449 462q48 -69 48 -198t-50 -201.5t-143 -72.5q-51 0 -91.5 23t-65.5 59l-4 -72h-29v734l34 5v-296q30 41 71 64.5t92 23.5q90 0 138 -69zM420.5 83.5q41.5 62.5 41.5 180.5q0 117 -39 176.5t-114 59.5q-52 0 -89 -24.5t-72 -71.5v-293q61 -90 154 -90q77 0 118.5 62.5z
M316.5 904q7.5 -8 7.5 -19q0 -12 -7.5 -20t-21.5 -8q-12 0 -20 8t-8 20q0 11 8 19t20 8q14 0 21.5 -8z" />
    <glyph glyph-name="uni1E05" unicode="&#x1e05;" horiz-adv-x="572" 
d="M449 462q48 -69 48 -198t-50 -201.5t-143 -72.5q-51 0 -91.5 23t-65.5 59l-4 -72h-29v734l34 5v-296q30 41 71 64.5t92 23.5q90 0 138 -69zM420.5 83.5q41.5 62.5 41.5 180.5q0 117 -39 176.5t-114 59.5q-52 0 -89 -24.5t-72 -71.5v-293q61 -90 154 -90q77 0 118.5 62.5z
M277.5 -141q-7.5 8 -7.5 19t7.5 19t21.5 8q12 0 20 -8t8 -19t-8 -19t-20 -8q-14 0 -21.5 8z" />
    <glyph glyph-name="uni0253" unicode="&#x253;" horiz-adv-x="572" 
d="M449 462q48 -69 48 -198t-50 -201.5t-143 -72.5q-51 0 -91.5 23t-65.5 59l-4 -72h-29v616q0 58 35.5 90.5t95.5 32.5q61 0 119 -29l-14 -27q-53 25 -103 25q-99 0 -99 -96v-169q30 41 71 64.5t92 23.5q90 0 138 -69zM420.5 83.5q41.5 62.5 41.5 180.5q0 117 -39 176.5
t-114 59.5q-52 0 -89 -24.5t-72 -71.5v-293q61 -90 154 -90q77 0 118.5 62.5z" />
    <glyph glyph-name="uni02AD" unicode="&#x2ad;" horiz-adv-x="314" 
d="M30 520h254v-120h-32v90h-190v-90h-32v120zM30 120h254v-120h-32v90h-190v-90h-32v120z" />
    <glyph glyph-name="uni0298" unicode="&#x298;" horiz-adv-x="790" 
d="M563.5 652q72.5 -41 112.5 -120.5t40 -191.5q0 -108 -39.5 -187t-111.5 -121t-170 -42q-95 0 -167.5 41.5t-113 120t-40.5 187.5t40.5 189t113 122.5t167.5 42.5q96 0 168.5 -41zM244.5 625q-64.5 -37 -100.5 -110t-36 -176q0 -101 36 -172.5t101 -108.5t150 -37
q134 0 210.5 83t76.5 236q0 156 -77 239t-210 83q-86 0 -150.5 -37zM415.5 360q7.5 -8 7.5 -20q0 -11 -7.5 -19t-20.5 -8q-12 0 -20.5 8t-8.5 19q0 12 8.5 20t20.5 8q13 0 20.5 -8z" />
    <glyph glyph-name="uni02AC" unicode="&#x2ac;" horiz-adv-x="459" 
d="M338 400h-41l-67 232l-67 -232h-41l-73 261h32l63 -236l69 236h36l68 -236l63 236h30zM338 0h-41l-67 232l-67 -232h-41l-73 261h32l63 -236l69 236h36l68 -236l63 236h30z" />
    <glyph glyph-name="uni0180" unicode="&#x180;" horiz-adv-x="577" 
d="M454.5 462q48.5 -69 48.5 -198t-50 -201.5t-143 -72.5q-50 0 -90.5 23t-67.5 59l-3 -72h-30v624h-75v30h75v80l34 5v-85h177v-30h-177v-181q66 88 163 88q90 0 138.5 -69zM426 83.5q41 62.5 41 180.5q0 117 -39 176.5t-114 59.5q-52 0 -88.5 -24t-72.5 -72v-292
q61 -91 154 -91q78 0 119 62.5z" />
    <glyph glyph-name="uni0183" unicode="&#x183;" horiz-adv-x="572" 
d="M449 462q48 -69 48 -198t-50 -201.5t-143 -72.5q-51 0 -91.5 23t-65.5 59l-4 -72h-29v734h278l-6 -30h-238v-261q30 41 71 64.5t92 23.5q90 0 138 -69zM420.5 83.5q41.5 62.5 41.5 180.5q0 117 -39 176.5t-114 59.5q-52 0 -89 -24.5t-72 -71.5v-293q61 -90 154 -90
q77 0 118.5 62.5z" />
    <glyph glyph-name="c" unicode="c" horiz-adv-x="463" 
d="M359 519q32 -12 64 -39l-19 -23q-24 21 -52.5 31.5t-66.5 10.5q-80 0 -130 -62.5t-50 -179.5q0 -114 49.5 -175t129.5 -61q70 0 125 47l19 -24q-61 -54 -142 -54q-65 0 -114 31.5t-76 91.5t-27 144q0 83 26.5 145t75.5 95.5t113 33.5q43 0 75 -12z" />
    <glyph glyph-name="cacute" unicode="&#x107;" horiz-adv-x="463" 
d="M359 519q32 -12 64 -39l-19 -23q-24 21 -52.5 31.5t-66.5 10.5q-80 0 -130 -62.5t-50 -179.5q0 -114 49.5 -175t129.5 -61q70 0 125 47l19 -24q-61 -54 -142 -54q-65 0 -114 31.5t-76 91.5t-27 144q0 83 26.5 145t75.5 95.5t113 33.5q43 0 75 -12zM371 734l-184 -84
l-12 23l180 96z" />
    <glyph glyph-name="cacute.loclPLK" horiz-adv-x="463" 
d="M359 519q32 -12 64 -39l-19 -23q-24 21 -52.5 31.5t-66.5 10.5q-80 0 -130 -62.5t-50 -179.5q0 -114 49.5 -175t129.5 -61q70 0 125 47l19 -24q-61 -54 -142 -54q-65 0 -114 31.5t-76 91.5t-27 144q0 83 26.5 145t75.5 95.5t113 33.5q43 0 75 -12zM384 732l-113 -154
l-20 13l101 162z" />
    <glyph glyph-name="ccaron" unicode="&#x10d;" horiz-adv-x="463" 
d="M359 519q32 -12 64 -39l-19 -23q-24 21 -52.5 31.5t-66.5 10.5q-80 0 -130 -62.5t-50 -179.5q0 -114 49.5 -175t129.5 -61q70 0 125 47l19 -24q-61 -54 -142 -54q-65 0 -114 31.5t-76 91.5t-27 144q0 83 26.5 145t75.5 95.5t113 33.5q43 0 75 -12zM416 738l-124 -101h-19
l-126 101l17 20l118 -85l118 85z" />
    <glyph glyph-name="ccedilla" unicode="&#xe7;" horiz-adv-x="463" 
d="M383 -140q0 -36 -26.5 -57t-65.5 -21q-41 0 -72 20l14 25q22 -15 58 -15q26 0 42.5 12t16.5 36t-21 35t-68 12l5 84q-91 7 -144 77t-53 189q0 83 26.5 145t75.5 95.5t113 33.5q43 0 75 -12t64 -39l-19 -23q-24 21 -52.5 31.5t-66.5 10.5q-80 0 -130 -62.5t-50 -179.5
q0 -114 49.5 -175t129.5 -61q70 0 125 47l19 -24q-59 -53 -136 -54v-60q91 -6 91 -70z" />
    <glyph glyph-name="ccircumflex" unicode="&#x109;" horiz-adv-x="463" 
d="M359 519q32 -12 64 -39l-19 -23q-24 21 -52.5 31.5t-66.5 10.5q-80 0 -130 -62.5t-50 -179.5q0 -114 49.5 -175t129.5 -61q70 0 125 47l19 -24q-61 -54 -142 -54q-65 0 -114 31.5t-76 91.5t-27 144q0 83 26.5 145t75.5 95.5t113 33.5q43 0 75 -12zM147 670l125 100h19
l125 -100l-16 -20l-119 85l-117 -85z" />
    <glyph glyph-name="uni0255" unicode="&#x255;" horiz-adv-x="474" 
d="M417 179q27 -27 27 -70q0 -55 -41 -87t-113 -32q-57 0 -102 22l-34 -70l-28 12l36 74q-44 33 -68.5 91t-24.5 138q0 83 26.5 145t75.5 95.5t113 33.5q43 0 75 -12t64 -39l-19 -23q-24 21 -52.5 31.5t-66.5 10.5q-80 0 -130 -62.5t-50 -179.5q0 -69 19 -119t53 -79l11 24
q30 66 66.5 94.5t86.5 28.5q49 0 76 -27zM376 42q35 21 35 67q0 32 -17.5 49.5t-52.5 17.5q-44 0 -75 -28t-65 -106q41 -21 89 -21q51 0 86 21z" />
    <glyph glyph-name="cdotaccent" unicode="&#x10b;" horiz-adv-x="463" 
d="M359 519q32 -12 64 -39l-19 -23q-24 21 -52.5 31.5t-66.5 10.5q-80 0 -130 -62.5t-50 -179.5q0 -114 49.5 -175t129.5 -61q70 0 125 47l19 -24q-61 -54 -142 -54q-65 0 -114 31.5t-76 91.5t-27 144q0 83 26.5 145t75.5 95.5t113 33.5q43 0 75 -12zM303.5 726
q7.5 -8 7.5 -19q0 -12 -7.5 -20t-21.5 -8q-12 0 -20 8t-8 20q0 11 8 19t20 8q14 0 21.5 -8z" />
    <glyph glyph-name="uni0188" unicode="&#x188;" horiz-adv-x="463" 
d="M588 707l-16 -22q-18 12 -35.5 18t-41.5 6q-72 0 -72 -90v-139l-17 -20q-28 19 -56.5 29t-64.5 10q-80 0 -130 -62.5t-50 -179.5q0 -114 49.5 -175t129.5 -61q70 0 126 48l18 -25q-61 -54 -142 -54q-65 0 -114 31.5t-76 91.5t-27 144q0 83 26.5 145t75.5 95.5t113 33.5
q59 0 105 -28v116q0 59 28.5 89.5t77.5 30.5q53 0 93 -32z" />
    <glyph glyph-name="uni0297" unicode="&#x297;" horiz-adv-x="484" 
d="M380 519q32 -12 63 -39l-18 -23q-24 21 -52.5 31.5t-66.5 10.5q-52 0 -92.5 -41.5t-64 -118.5t-23.5 -180q0 -101 23 -177t63.5 -116.5t92.5 -40.5q70 0 125 47l19 -24q-62 -54 -142 -54q-64 0 -113.5 45.5t-76.5 128.5t-27 191t27 192.5t75.5 132t112.5 47.5
q43 0 75 -12z" />
    <glyph glyph-name="uni023C" unicode="&#x23c;" horiz-adv-x="463" 
d="M286 -10q-43 0 -76 13l-20 -73l-24 6l21 77q-56 29 -87 91.5t-31 152.5q0 83 26.5 145t75.5 95.5t113 33.5q17 0 45 -4l17 62l23 -6l-17 -62q38 -12 71 -41l-19 -23q-29 24 -60 34l-126 -458q31 -12 66 -12q70 0 125 47l19 -24q-61 -54 -142 -54zM129 125q24 -54 67 -80
l124 452q-11 2 -35 2q-80 0 -130 -62.5t-50 -179.5q0 -78 24 -132z" />
    <glyph glyph-name="d" unicode="d" horiz-adv-x="576" 
d="M463 734v-734h-30l-4 85q-53 -95 -161 -95q-58 0 -102 32t-68 92.5t-24 143.5q0 81 24.5 142.5t70.5 96t109 34.5q93 0 151 -76v284zM363.5 48.5q37.5 27.5 65.5 82.5v282q-57 87 -148 87q-51 0 -89.5 -29t-60 -83.5t-21.5 -129.5q0 -112 43 -174.5t117 -62.5
q56 0 93.5 27.5z" />
    <glyph glyph-name="eth" unicode="&#xf0;" horiz-adv-x="555" 
d="M431.5 514q40.5 -88 40.5 -224q0 -149 -54.5 -224.5t-147.5 -75.5q-96 0 -148.5 64.5t-52.5 176.5q0 62 22.5 115.5t66 85.5t102.5 32q98 0 173 -91q-8 85 -43 151.5t-100 117.5l-80 -82l-27 11l85 87q-64 40 -129 53l8 29q74 -16 142 -60l69 72l22 -19l-68 -69
q79 -62 119.5 -150zM393.5 90.5q43.5 69.5 43.5 202.5l-1 41q-78 99 -173 99q-74 0 -116 -57.5t-42 -145.5q0 -99 43.5 -154t121.5 -55q80 0 123.5 69.5z" />
    <glyph glyph-name="uni0238" unicode="&#x238;" horiz-adv-x="847" 
d="M725.5 461.5q46.5 -69.5 46.5 -197.5t-48 -201t-135 -73q-47 0 -85.5 27.5t-61.5 68.5l-4 -86h-25l-4 86q-23 -43 -61 -69.5t-90 -26.5q-54 0 -95.5 32t-65 93t-23.5 143q0 80 24 142t68 96.5t102 34.5q87 0 141 -85v288l34 5v-295q29 41 68 64t85 23q83 0 129.5 -69.5z
M345 48.5q36 27.5 64 82.5v277q-34 47 -65 69.5t-74 22.5q-45 0 -82 -29t-57.5 -84t-20.5 -129q0 -111 41.5 -174t108.5 -63q49 0 85 27.5zM697.5 84q39.5 63 39.5 180q0 116 -37.5 176t-105.5 60q-46 0 -81 -24t-70 -71v-273q27 -54 63.5 -82.5t81.5 -28.5q70 0 109.5 63z
" />
    <glyph glyph-name="dcaron" unicode="&#x10f;" horiz-adv-x="576" 
d="M463 734v-734h-30l-4 85q-53 -95 -161 -95q-58 0 -102 32t-68 92.5t-24 143.5q0 81 24.5 142.5t70.5 96t109 34.5q93 0 151 -76v284zM363.5 48.5q37.5 27.5 65.5 82.5v282q-57 87 -148 87q-51 0 -89.5 -29t-60 -83.5t-21.5 -129.5q0 -112 43 -174.5t117 -62.5
q56 0 93.5 27.5zM586 734l-31 -150l-23 3l18 151z" />
    <glyph glyph-name="uni1E13" unicode="&#x1e13;" horiz-adv-x="576" 
d="M463 734v-734h-30l-4 85q-53 -95 -161 -95q-58 0 -102 32t-68 92.5t-24 143.5q0 81 24.5 142.5t70.5 96t109 34.5q93 0 151 -76v284zM363.5 48.5q37.5 27.5 65.5 82.5v282q-57 87 -148 87q-51 0 -89.5 -29t-60 -83.5t-21.5 -129.5q0 -112 43 -174.5t117 -62.5
q56 0 93.5 27.5zM164 -172l125 101h19l125 -101l-16 -19l-119 85l-117 -85z" />
    <glyph glyph-name="dcroat" unicode="&#x111;" horiz-adv-x="582" 
d="M538 654v-30h-75v-624h-30l-4 85q-53 -95 -161 -95q-58 0 -102 32t-68 92.5t-24 143.5q0 81 24.5 142.5t70.5 96t109 34.5q93 0 151 -76v169h-169v30h169v85l34 -5v-80h75zM363.5 48.5q37.5 27.5 65.5 82.5v282q-57 87 -148 87q-51 0 -89.5 -29t-60 -83.5t-21.5 -129.5
q0 -112 43 -174.5t117 -62.5q56 0 93.5 27.5z" />
    <glyph glyph-name="uni0221" unicode="&#x221;" horiz-adv-x="662" 
d="M666 162q26 -25 26 -62q0 -49 -37.5 -79.5t-95.5 -30.5q-60 0 -95 35l-43 -83l-28 12l51 97q-8 15 -13 38q-23 -44 -63 -71.5t-100 -27.5q-58 0 -102 32t-68 92.5t-24 143.5q0 81 24.5 142.5t70.5 96t109 34.5q93 0 151 -76v284l34 -5v-616q0 -10 2 -28q26 47 57.5 72
t75.5 25q42 0 68 -25zM363.5 48.5q37.5 27.5 65.5 82.5v282q-57 87 -148 87q-51 0 -89.5 -29t-60 -83.5t-21.5 -129.5q0 -112 43 -174.5t117 -62.5q56 0 93.5 27.5zM630.5 42q27.5 21 27.5 58q0 26 -16 41.5t-44 15.5q-40 0 -65.5 -24t-53.5 -77q23 -35 80 -35q44 0 71.5 21
z" />
    <glyph glyph-name="uni1E0B" unicode="&#x1e0b;" horiz-adv-x="576" 
d="M463 734v-734h-30l-4 85q-53 -95 -161 -95q-58 0 -102 32t-68 92.5t-24 143.5q0 81 24.5 142.5t70.5 96t109 34.5q93 0 151 -76v284zM363.5 48.5q37.5 27.5 65.5 82.5v282q-57 87 -148 87q-51 0 -89.5 -29t-60 -83.5t-21.5 -129.5q0 -112 43 -174.5t117 -62.5
q56 0 93.5 27.5zM301.5 904q7.5 -8 7.5 -19q0 -12 -7.5 -20t-21.5 -8q-12 0 -20 8t-8 20q0 11 8 19t20 8q14 0 21.5 -8z" />
    <glyph glyph-name="uni1E0D" unicode="&#x1e0d;" horiz-adv-x="576" 
d="M463 734v-734h-30l-4 85q-53 -95 -161 -95q-58 0 -102 32t-68 92.5t-24 143.5q0 81 24.5 142.5t70.5 96t109 34.5q93 0 151 -76v284zM363.5 48.5q37.5 27.5 65.5 82.5v282q-57 87 -148 87q-51 0 -89.5 -29t-60 -83.5t-21.5 -129.5q0 -112 43 -174.5t117 -62.5
q56 0 93.5 27.5zM277.5 -141q-7.5 8 -7.5 19t7.5 19t21.5 8q12 0 20 -8t8 -19t-8 -19t-20 -8q-14 0 -21.5 8z" />
    <glyph glyph-name="uni018D" unicode="&#x18d;" horiz-adv-x="559" 
d="M351.5 -160.5q30.5 8.5 64.5 29.5l20 -23q-35 -24 -73 -35t-89 -11q-68 0 -109.5 31.5t-41.5 80.5q0 42 27 71.5t85 53.5q-79 33 -122.5 95t-43.5 152q0 118 56.5 182.5t155.5 64.5q101 0 155 -63.5t54 -182.5q0 -101 -44.5 -158t-146.5 -95q-57 -22 -87 -39.5t-42 -36
t-12 -44.5q0 -37 31.5 -59t85.5 -22q46 0 76.5 8.5zM149 137q44 -58 117 -87q73 28 113.5 58t58 71.5t17.5 105.5q0 215 -174 215q-82 0 -129 -56t-47 -160q0 -89 44 -147z" />
    <glyph glyph-name="uni02A4" unicode="&#x2a4;" horiz-adv-x="872" 
d="M838 2q0 -90 -55.5 -146t-151.5 -56q-59 0 -104.5 21t-82.5 63l22 19q36 -38 75 -55t89 -17q84 0 128 46t44 125q0 86 -47.5 124.5t-149.5 38.5h-53v31l219 293h-308v-489h-30l-4 85q-53 -95 -161 -95q-58 0 -102 32t-68 92.5t-24 143.5q0 81 24.5 142.5t70.5 96
t109 34.5q93 0 151 -76v284l34 -5v-214h350v-27l-223 -297h17q231 0 231 -194zM363.5 48.5q37.5 27.5 65.5 82.5v282q-57 87 -148 87q-51 0 -89.5 -29t-60 -83.5t-21.5 -129.5q0 -112 43 -174.5t117 -62.5q56 0 93.5 27.5z" />
    <glyph glyph-name="uni0257" unicode="&#x257;" horiz-adv-x="576" 
d="M628 707l-16 -22q-18 12 -35.5 18t-41.5 6q-72 0 -72 -90v-619h-30l-4 85q-53 -95 -161 -95q-58 0 -102 32t-68 92.5t-24 143.5q0 81 24.5 142.5t70.5 96t109 34.5q93 0 151 -76v164q0 59 28.5 89.5t77.5 30.5q53 0 93 -32zM363.5 48.5q37.5 27.5 65.5 82.5v282
q-57 87 -148 87q-51 0 -89.5 -29t-60 -83.5t-21.5 -129.5q0 -112 43 -174.5t117 -62.5q56 0 93.5 27.5z" />
    <glyph glyph-name="uni1E0F" unicode="&#x1e0f;" horiz-adv-x="576" 
d="M463 734v-734h-30l-4 85q-53 -95 -161 -95q-58 0 -102 32t-68 92.5t-24 143.5q0 81 24.5 142.5t70.5 96t109 34.5q93 0 151 -76v284zM363.5 48.5q37.5 27.5 65.5 82.5v282q-57 87 -148 87q-51 0 -89.5 -29t-60 -83.5t-21.5 -129.5q0 -112 43 -174.5t117 -62.5
q56 0 93.5 27.5zM190 -149v32h218v-32h-218z" />
    <glyph glyph-name="uni0256" unicode="&#x256;" horiz-adv-x="576" 
d="M628 -168q-40 -32 -92 -32q-48 0 -77.5 30.5t-29.5 89.5v164q-53 -94 -161 -94q-58 0 -102 32t-68 92.5t-24 143.5q0 81 24.5 142.5t70.5 96t109 34.5q93 0 151 -76v284l34 -5v-814q0 -48 20 -69t53 -21q24 0 41.5 6.5t34.5 17.5zM363.5 48.5q37.5 27.5 65.5 82.5v282
q-57 87 -148 87q-51 0 -89.5 -29t-60 -83.5t-21.5 -129.5q0 -112 43 -174.5t117 -62.5q56 0 93.5 27.5z" />
    <glyph glyph-name="uni018C" unicode="&#x18c;" horiz-adv-x="576" 
d="M463 0h-30l-4 85q-53 -95 -161 -95q-58 0 -102 32t-68 92.5t-24 143.5q0 81 24.5 142.5t70.5 96t109 34.5q93 0 151 -76v249h-242v30h276v-734zM363.5 48.5q37.5 27.5 65.5 82.5v282q-57 87 -148 87q-51 0 -89.5 -29t-60 -83.5t-21.5 -129.5q0 -112 43 -174.5t117 -62.5
q56 0 93.5 27.5z" />
    <glyph glyph-name="uni01F3" unicode="&#x1f3;" horiz-adv-x="988" 
d="M463 734v-734h-30l-4 85q-53 -95 -161 -95q-58 0 -102 32t-68 92.5t-24 143.5q0 81 24.5 142.5t70.5 96t109 34.5q93 0 151 -76v284zM363.5 48.5q37.5 27.5 65.5 82.5v282q-57 87 -148 87q-51 0 -89.5 -29t-60 -83.5t-21.5 -129.5q0 -112 43 -174.5t117 -62.5
q56 0 93.5 27.5zM953 493l-305 -462h299l-3 -31h-338v28l305 461h-280v31h322v-27z" />
    <glyph glyph-name="uni02A3" unicode="&#x2a3;" horiz-adv-x="853" 
d="M818 493l-314 -462h309l-4 -31h-376l-4 85q-53 -95 -161 -95q-58 0 -102 32t-68 92.5t-24 143.5q0 81 24.5 142.5t70.5 96t109 34.5q93 0 151 -76v284l34 -5v-214h355v-27zM363.5 48.5q37.5 27.5 65.5 82.5v282q-57 87 -148 87q-51 0 -89.5 -29t-60 -83.5t-21.5 -129.5
q0 -112 43 -174.5t117 -62.5q56 0 93.5 27.5zM777 489h-314v-460z" />
    <glyph glyph-name="uni01C6" unicode="&#x1c6;" horiz-adv-x="988" 
d="M463 734v-734h-30l-4 85q-53 -95 -161 -95q-58 0 -102 32t-68 92.5t-24 143.5q0 81 24.5 142.5t70.5 96t109 34.5q93 0 151 -76v284zM363.5 48.5q37.5 27.5 65.5 82.5v282q-57 87 -148 87q-51 0 -89.5 -29t-60 -83.5t-21.5 -129.5q0 -112 43 -174.5t117 -62.5
q56 0 93.5 27.5zM953 493l-305 -462h299l-3 -31h-338v28l305 461h-280v31h322v-27zM924 738l-124 -101h-19l-126 101l17 20l118 -85l118 85z" />
    <glyph glyph-name="uni02A5" unicode="&#x2a5;" horiz-adv-x="860" 
d="M854.5 173q25.5 -24 25.5 -65q0 -56 -45 -82t-142 -26q-2 -42 -2 -62l1 -41h-30q-1 14 -1 43q0 40 1 60h-199h-30l-4 85q-53 -95 -161 -95q-58 0 -102 32t-68 92.5t-24 143.5q0 81 24.5 142.5t70.5 96t109 34.5q93 0 151 -76v284l34 -5v-214h356v-27l-314 -462h160
q5 78 37 122t87 44q40 0 65.5 -24zM363.5 48.5q37.5 27.5 65.5 82.5v282q-57 87 -148 87q-51 0 -89.5 -29t-60 -83.5t-21.5 -129.5q0 -112 43 -174.5t117 -62.5q56 0 93.5 27.5zM463 28l315 461h-315v-461zM812 47.5q35 18.5 35 60.5q0 28 -15.5 44t-43.5 16
q-39 0 -63 -33.5t-30 -103.5q82 -2 117 16.5z" />
    <glyph glyph-name="e" unicode="e" horiz-adv-x="530" 
d="M464 243h-359q4 -111 52 -166.5t126 -55.5q42 0 74 13t70 42l18 -24q-36 -31 -75 -46.5t-87 -15.5q-99 0 -156.5 70.5t-57.5 195.5q0 84 25 146t70.5 95.5t106.5 33.5q96 0 145.5 -66.5t49.5 -181.5q0 -22 -2 -40zM432 295q0 95 -39.5 150t-119.5 55q-71 0 -118 -57.5
t-50 -170.5h327v23z" />
    <glyph glyph-name="eacute" unicode="&#xe9;" horiz-adv-x="530" 
d="M464 243h-359q4 -111 52 -166.5t126 -55.5q42 0 74 13t70 42l18 -24q-36 -31 -75 -46.5t-87 -15.5q-99 0 -156.5 70.5t-57.5 195.5q0 84 25 146t70.5 95.5t106.5 33.5q96 0 145.5 -66.5t49.5 -181.5q0 -22 -2 -40zM432 295q0 95 -39.5 150t-119.5 55q-71 0 -118 -57.5
t-50 -170.5h327v23zM362 734l-184 -84l-12 23l180 96z" />
    <glyph glyph-name="ebreve" unicode="&#x115;" horiz-adv-x="530" 
d="M464 243h-359q4 -111 52 -166.5t126 -55.5q42 0 74 13t70 42l18 -24q-36 -31 -75 -46.5t-87 -15.5q-99 0 -156.5 70.5t-57.5 195.5q0 84 25 146t70.5 95.5t106.5 33.5q96 0 145.5 -66.5t49.5 -181.5q0 -22 -2 -40zM432 295q0 95 -39.5 150t-119.5 55q-71 0 -118 -57.5
t-50 -170.5h327v23zM197.5 686q-31.5 26 -38.5 68l25 6q9 -33 32 -51t58 -18t58.5 18t32.5 51l25 -6q-7 -42 -38.5 -68t-77.5 -26q-45 0 -76.5 26z" />
    <glyph glyph-name="ecaron" unicode="&#x11b;" horiz-adv-x="530" 
d="M464 243h-359q4 -111 52 -166.5t126 -55.5q42 0 74 13t70 42l18 -24q-36 -31 -75 -46.5t-87 -15.5q-99 0 -156.5 70.5t-57.5 195.5q0 84 25 146t70.5 95.5t106.5 33.5q96 0 145.5 -66.5t49.5 -181.5q0 -22 -2 -40zM432 295q0 95 -39.5 150t-119.5 55q-71 0 -118 -57.5
t-50 -170.5h327v23zM408 738l-124 -101h-19l-126 101l17 20l118 -85l118 85z" />
    <glyph glyph-name="uni0229" unicode="&#x229;" horiz-adv-x="530" 
d="M464 243h-359q4 -111 52 -166.5t126 -55.5q42 0 74 13t70 42l18 -24q-34 -29 -70 -44.5t-80 -17.5v-60q91 -6 91 -70q0 -36 -26.5 -57t-65.5 -21q-41 0 -72 20l14 25q22 -15 58 -15q26 0 42.5 12t16.5 36t-21 35t-68 12l5 83q-92 5 -146 75.5t-54 190.5q0 84 25 146
t70.5 95.5t106.5 33.5q96 0 145.5 -66.5t49.5 -181.5q0 -22 -2 -40zM432 295q0 95 -39.5 150t-119.5 55q-71 0 -118 -57.5t-50 -170.5h327v23z" />
    <glyph glyph-name="ecircumflex" unicode="&#xea;" horiz-adv-x="530" 
d="M464 243h-359q4 -111 52 -166.5t126 -55.5q42 0 74 13t70 42l18 -24q-36 -31 -75 -46.5t-87 -15.5q-99 0 -156.5 70.5t-57.5 195.5q0 84 25 146t70.5 95.5t106.5 33.5q96 0 145.5 -66.5t49.5 -181.5q0 -22 -2 -40zM432 295q0 95 -39.5 150t-119.5 55q-71 0 -118 -57.5
t-50 -170.5h327v23zM139 670l125 100h19l125 -100l-16 -20l-119 85l-117 -85z" />
    <glyph glyph-name="uni1EBF" unicode="&#x1ebf;" horiz-adv-x="530" 
d="M378 679l-18 16l101 123l26 -24zM156 586l-17 19l126 95h19l124 -95l-16 -19l-118 79zM416.5 464.5q49.5 -66.5 49.5 -181.5q0 -22 -2 -40h-359q4 -111 52 -166.5t126 -55.5q42 0 74 13t70 42l18 -24q-36 -31 -75 -46.5t-87 -15.5q-99 0 -156.5 70.5t-57.5 195.5
q0 84 25 146t70.5 95.5t106.5 33.5q96 0 145.5 -66.5zM432 295q0 95 -39.5 150t-119.5 55q-71 0 -118 -57.5t-50 -170.5h327v23z" />
    <glyph glyph-name="uni1EC7" unicode="&#x1ec7;" horiz-adv-x="530" 
d="M464 243h-359q4 -111 52 -166.5t126 -55.5q42 0 74 13t70 42l18 -24q-36 -31 -75 -46.5t-87 -15.5q-99 0 -156.5 70.5t-57.5 195.5q0 84 25 146t70.5 95.5t106.5 33.5q96 0 145.5 -66.5t49.5 -181.5q0 -22 -2 -40zM432 295q0 95 -39.5 150t-119.5 55q-71 0 -118 -57.5
t-50 -170.5h327v23zM139 670l125 100h19l125 -100l-16 -20l-119 85l-117 -85zM265.5 -141q-7.5 8 -7.5 19t7.5 19t21.5 8q12 0 20 -8t8 -19t-8 -19t-20 -8q-14 0 -21.5 8z" />
    <glyph glyph-name="uni1EC1" unicode="&#x1ec1;" horiz-adv-x="530" 
d="M177 679l-109 115l26 24l101 -123zM139 605l126 95h19l124 -95l-16 -19l-118 79l-118 -79zM464 243h-359q4 -111 52 -166.5t126 -55.5q42 0 74 13t70 42l18 -24q-36 -31 -75 -46.5t-87 -15.5q-99 0 -156.5 70.5t-57.5 195.5q0 84 25 146t70.5 95.5t106.5 33.5
q96 0 145.5 -66.5t49.5 -181.5q0 -22 -2 -40zM432 295q0 95 -39.5 150t-119.5 55q-71 0 -118 -57.5t-50 -170.5h327v23z" />
    <glyph glyph-name="uni1EC3" unicode="&#x1ec3;" horiz-adv-x="530" 
d="M330 825l-12 24q33 19 72 19q38 0 60 -19.5t22 -51.5q0 -63 -70 -71v-56h-33v76q68 2 68 49q0 21 -13 32.5t-36 11.5q-30 0 -58 -14zM156 586l-17 19l126 95h19l124 -95l-16 -19l-118 79zM416.5 464.5q49.5 -66.5 49.5 -181.5q0 -22 -2 -40h-359q4 -111 52 -166.5
t126 -55.5q42 0 74 13t70 42l18 -24q-36 -31 -75 -46.5t-87 -15.5q-99 0 -156.5 70.5t-57.5 195.5q0 84 25 146t70.5 95.5t106.5 33.5q96 0 145.5 -66.5zM432 295q0 95 -39.5 150t-119.5 55q-71 0 -118 -57.5t-50 -170.5h327v23z" />
    <glyph glyph-name="uni1EC5" unicode="&#x1ec5;" horiz-adv-x="530" 
d="M184.5 769q-13.5 -8 -28.5 -28l-21 12q33 54 80 54q13 0 26 -5t33 -16q21 -11 33.5 -16.5t25.5 -5.5q16 0 29 9.5t29 33.5l21 -12q-30 -61 -79 -61q-18 0 -34 6.5t-37 18.5q-3 1 -13 7t-18.5 8.5t-15.5 2.5q-17 0 -30.5 -8zM284 690l124 -95l-16 -19l-118 79l-118 -79
l-17 19l126 95h19zM464 243h-359q4 -111 52 -166.5t126 -55.5q42 0 74 13t70 42l18 -24q-36 -31 -75 -46.5t-87 -15.5q-99 0 -156.5 70.5t-57.5 195.5q0 84 25 146t70.5 95.5t106.5 33.5q96 0 145.5 -66.5t49.5 -181.5q0 -22 -2 -40zM432 295q0 95 -39.5 150t-119.5 55
q-71 0 -118 -57.5t-50 -170.5h327v23z" />
    <glyph glyph-name="uni0205" unicode="&#x205;" horiz-adv-x="530" 
d="M464 243h-359q4 -111 52 -166.5t126 -55.5q42 0 74 13t70 42l18 -24q-36 -31 -75 -46.5t-87 -15.5q-99 0 -156.5 70.5t-57.5 195.5q0 84 25 146t70.5 95.5t106.5 33.5q96 0 145.5 -66.5t49.5 -181.5q0 -22 -2 -40zM432 295q0 95 -39.5 150t-119.5 55q-71 0 -118 -57.5
t-50 -170.5h327v23zM245 660l-24 -12l-84 131l34 17zM351 664l-24 -12l-76 126l34 18z" />
    <glyph glyph-name="edieresis" unicode="&#xeb;" horiz-adv-x="530" 
d="M464 243h-359q4 -111 52 -166.5t126 -55.5q42 0 74 13t70 42l18 -24q-36 -31 -75 -46.5t-87 -15.5q-99 0 -156.5 70.5t-57.5 195.5q0 84 25 146t70.5 95.5t106.5 33.5q96 0 145.5 -66.5t49.5 -181.5q0 -22 -2 -40zM432 295q0 95 -39.5 150t-119.5 55q-71 0 -118 -57.5
t-50 -170.5h327v23zM206 715.5q8 -7.5 8 -19.5q0 -11 -8 -19t-20 -8t-19.5 8t-7.5 19t7.5 19t19.5 8t20 -7.5zM381 715.5q8 -7.5 8 -19.5q0 -11 -8 -19t-20 -8q-13 0 -20.5 8t-7.5 19q0 12 7.5 19.5t20.5 7.5q12 0 20 -7.5z" />
    <glyph glyph-name="edotaccent" unicode="&#x117;" horiz-adv-x="530" 
d="M464 243h-359q4 -111 52 -166.5t126 -55.5q42 0 74 13t70 42l18 -24q-36 -31 -75 -46.5t-87 -15.5q-99 0 -156.5 70.5t-57.5 195.5q0 84 25 146t70.5 95.5t106.5 33.5q96 0 145.5 -66.5t49.5 -181.5q0 -22 -2 -40zM432 295q0 95 -39.5 150t-119.5 55q-71 0 -118 -57.5
t-50 -170.5h327v23zM295.5 726q7.5 -8 7.5 -19q0 -12 -7.5 -20t-21.5 -8q-12 0 -20 8t-8 20q0 11 8 19t20 8q14 0 21.5 -8z" />
    <glyph glyph-name="uni1EB9" unicode="&#x1eb9;" horiz-adv-x="530" 
d="M464 243h-359q4 -111 52 -166.5t126 -55.5q42 0 74 13t70 42l18 -24q-36 -31 -75 -46.5t-87 -15.5q-99 0 -156.5 70.5t-57.5 195.5q0 84 25 146t70.5 95.5t106.5 33.5q96 0 145.5 -66.5t49.5 -181.5q0 -22 -2 -40zM432 295q0 95 -39.5 150t-119.5 55q-71 0 -118 -57.5
t-50 -170.5h327v23zM265.5 -141q-7.5 8 -7.5 19t7.5 19t21.5 8q12 0 20 -8t8 -19t-8 -19t-20 -8q-14 0 -21.5 8z" />
    <glyph glyph-name="egrave" unicode="&#xe8;" horiz-adv-x="530" 
d="M464 243h-359q4 -111 52 -166.5t126 -55.5q42 0 74 13t70 42l18 -24q-36 -31 -75 -46.5t-87 -15.5q-99 0 -156.5 70.5t-57.5 195.5q0 84 25 146t70.5 95.5t106.5 33.5q96 0 145.5 -66.5t49.5 -181.5q0 -22 -2 -40zM432 295q0 95 -39.5 150t-119.5 55q-71 0 -118 -57.5
t-50 -170.5h327v23zM372 673l-12 -23l-184 84l16 35z" />
    <glyph glyph-name="uni1EBB" unicode="&#x1ebb;" horiz-adv-x="530" 
d="M464 243h-359q4 -111 52 -166.5t126 -55.5q42 0 74 13t70 42l18 -24q-36 -31 -75 -46.5t-87 -15.5q-99 0 -156.5 70.5t-57.5 195.5q0 84 25 146t70.5 95.5t106.5 33.5q96 0 145.5 -66.5t49.5 -181.5q0 -22 -2 -40zM432 295q0 95 -39.5 150t-119.5 55q-71 0 -118 -57.5
t-50 -170.5h327v23zM256 696q68 2 68 49q0 21 -13 32.5t-36 11.5q-30 0 -58 -14l-12 24q33 19 72 19q38 0 60 -19.5t22 -51.5q0 -63 -70 -71v-56h-33v76z" />
    <glyph glyph-name="uni0207" unicode="&#x207;" horiz-adv-x="530" 
d="M464 243h-359q4 -111 52 -166.5t126 -55.5q42 0 74 13t70 42l18 -24q-36 -31 -75 -46.5t-87 -15.5q-99 0 -156.5 70.5t-57.5 195.5q0 84 25 146t70.5 95.5t106.5 33.5q96 0 145.5 -66.5t49.5 -181.5q0 -22 -2 -40zM432 295q0 95 -39.5 150t-119.5 55q-71 0 -118 -57.5
t-50 -170.5h327v23zM351.5 703.5q31.5 -26.5 38.5 -68.5l-25 -5q-9 33 -32.5 50.5t-58.5 17.5t-58 -17.5t-32 -50.5l-25 5q7 42 38.5 68.5t76.5 26.5q46 0 77.5 -26.5z" />
    <glyph glyph-name="emacron" unicode="&#x113;" horiz-adv-x="530" 
d="M464 243h-359q4 -111 52 -166.5t126 -55.5q42 0 74 13t70 42l18 -24q-36 -31 -75 -46.5t-87 -15.5q-99 0 -156.5 70.5t-57.5 195.5q0 84 25 146t70.5 95.5t106.5 33.5q96 0 145.5 -66.5t49.5 -181.5q0 -22 -2 -40zM432 295q0 95 -39.5 150t-119.5 55q-71 0 -118 -57.5
t-50 -170.5h327v23zM165 682v32h218v-32h-218z" />
    <glyph glyph-name="eogonek" unicode="&#x119;" horiz-adv-x="530" 
d="M464 243h-359q4 -111 52 -166.5t126 -55.5q42 0 74 13t70 42l18 -24q-42 -36 -83 -49q-62 -29 -89 -55t-27 -64q0 -25 18 -39.5t52 -14.5q22 0 53 6l-3 -33q-30 -6 -55 -6q-50 0 -75.5 23.5t-25.5 61.5q0 33 20 59.5t61 48.5h-8q-99 0 -156.5 70.5t-57.5 195.5
q0 84 25 146t70.5 95.5t106.5 33.5q96 0 145.5 -66.5t49.5 -181.5q0 -22 -2 -40zM432 295q0 95 -39.5 150t-119.5 55q-71 0 -118 -57.5t-50 -170.5h327v23z" />
    <glyph glyph-name="uni025B" unicode="&#x25b;" horiz-adv-x="454" 
d="M343.5 519q36.5 -12 68.5 -34l-19 -24q-29 19 -60.5 29t-72.5 10q-64 0 -99.5 -28t-35.5 -77q0 -47 37 -77t100 -30h58l-4 -30h-57q-154 0 -154 -120q0 -55 40.5 -86t108.5 -31q50 0 82.5 13t69.5 42l19 -23q-36 -30 -76.5 -46.5t-95.5 -16.5q-81 0 -132.5 39.5
t-51.5 109.5q0 62 36 95.5t95 39.5q-110 26 -110 121q0 63 46.5 99.5t120.5 36.5q50 0 86.5 -12z" />
    <glyph glyph-name="uni029A" unicode="&#x29a;" horiz-adv-x="550" 
d="M120 30.5q-51 40.5 -51 117.5q0 120 138 128q-53 10 -82.5 39t-29.5 78q0 62 45.5 100t118.5 38q103 0 162 -72t59 -200q0 -127 -57.5 -198t-162.5 -71q-89 0 -140 40.5zM397.5 82.5q47.5 61.5 47.5 176.5q0 118 -49 179.5t-137 61.5q-61 0 -95 -30t-34 -77
q0 -49 37.5 -76.5t107.5 -27.5h26l3 -29h-36q-80 0 -122 -26t-42 -85q0 -66 41.5 -97t114.5 -31q90 0 137.5 61.5z" />
    <glyph glyph-name="uni025C" unicode="&#x25c;" horiz-adv-x="470" 
d="M331 494.5q44 -36.5 44 -98.5q0 -99 -112 -120q138 -8 138 -128q0 -76 -50 -117t-133 -41q-61 0 -106.5 18.5t-82.5 50.5l20 21q35 -29 74 -44t94 -15q69 0 109 31t40 97q0 59 -42 85t-123 26h-57l4 29h46q71 0 108.5 28t37.5 79q0 48 -33 76t-90 28q-48 0 -81.5 -11
t-73.5 -35l-17 23q40 27 81 40.5t92 13.5q69 0 113 -36.5z" />
    <glyph glyph-name="uni025E" unicode="&#x25e;" horiz-adv-x="549" 
d="M127 61q-58 71 -58 198q0 128 59 200t162 72q74 0 119 -38t45 -100q0 -49 -29 -78t-83 -39q138 -8 138 -128q0 -77 -50.5 -117.5t-139.5 -40.5q-105 0 -163 71zM445 149q0 59 -42 85t-122 26h-36l3 29h26q71 0 108 27.5t37 76.5q0 47 -34 77t-95 30q-88 0 -137 -61.5
t-49 -179.5q0 -115 48 -176.5t137 -61.5q156 0 156 128z" />
    <glyph glyph-name="uni025D" unicode="&#x25d;" horiz-adv-x="629" 
d="M658 361q-41 -31 -94 -31q-49 0 -77 30t-28 88v41l-93 -45q9 -21 9 -48q0 -99 -112 -120q138 -8 138 -128q0 -76 -50 -117t-133 -41q-61 0 -106.5 18.5t-82.5 50.5l20 21q35 -29 74 -44t94 -15q69 0 109 31t40 97q0 59 -42 85t-123 26h-57l4 29h46q71 0 108.5 28t37.5 79
q0 48 -33 76t-90 28q-48 0 -81.5 -11t-73.5 -35l-17 23q40 27 81 40.5t92 13.5q44 0 79.5 -15.5t55.5 -44.5l106 49h33v-70q0 -48 20 -69t53 -21q24 0 41 6t36 18z" />
    <glyph glyph-name="uni0258" unicode="&#x258;" horiz-adv-x="530" 
d="M409.5 460.5q51.5 -70.5 51.5 -204.5q0 -125 -57.5 -195.5t-155.5 -70.5q-49 0 -87.5 15.5t-75.5 46.5l19 24q37 -29 69 -42t75 -13q78 0 125.5 55.5t52.5 166.5h-360q-2 18 -2 40q0 114 51.5 181t146.5 67q96 0 147.5 -70.5zM98 272h328q-5 228 -164 228
q-80 0 -122 -56.5t-42 -148.5v-23z" />
    <glyph glyph-name="uni0283" unicode="&#x283;" horiz-adv-x="268" 
d="M317 707l-17 -22q-18 11 -35.5 17.5t-40.5 6.5q-33 0 -53 -21t-20 -69v-699q0 -59 -29.5 -89.5t-77.5 -30.5q-52 0 -92 32l16 22q17 -11 34.5 -17.5t41.5 -6.5q33 0 53 21t20 69v699q0 59 28.5 89.5t77.5 30.5q52 0 94 -32z" />
    <glyph glyph-name="uni0286" unicode="&#x286;" horiz-adv-x="277" 
d="M180 688q-20 -21 -20 -69v-642q56 -15 101 -37l-12 -24q-43 20 -89 32q-6 -148 -134 -148q-48 0 -77.5 25.5t-29.5 64.5q0 46 36.5 73.5t95.5 27.5q28 0 75 -7v635q0 59 28.5 89.5t77.5 30.5q54 0 94 -32l-16 -22q-19 12 -36 18t-41 6q-33 0 -53 -21zM100 -141
q25 30 26 96q-38 7 -74 7q-49 0 -74.5 -19t-25.5 -52q0 -28 19.5 -45t54.5 -17q49 0 74 30z" />
    <glyph glyph-name="uni01AA" unicode="&#x1aa;" horiz-adv-x="271" 
d="M320 -168q-42 -32 -93 -32q-48 0 -77.5 30.5t-29.5 89.5v612q-29 -16 -63 -16q-46 0 -74.5 29.5t-28.5 79.5q0 49 29 81.5t73 32.5q46 0 72 -30.5t26 -77.5v-711q0 -48 20 -69t53 -21q24 0 41.5 6.5t34.5 17.5zM120 561v70q0 36 -17 57t-47 21q-31 0 -49.5 -22.5
t-18.5 -60.5q0 -40 19 -60t52 -20q34 0 61 15z" />
    <glyph glyph-name="uni0285" unicode="&#x285;" horiz-adv-x="375" 
d="M370 21q-41 -31 -93 -31q-48 0 -77.5 30.5t-29.5 88.5v302q0 90 -72 90q-24 0 -41.5 -6t-35.5 -18l-16 22q43 32 93 32q49 0 77.5 -30.5t28.5 -89.5v-301q0 -48 20.5 -69t53.5 -21q40 0 75 24z" />
    <glyph glyph-name="uni0247" unicode="&#x247;" horiz-adv-x="530" 
d="M274 243l-57 -210q30 -12 66 -12q42 0 74 13t70 42l18 -24q-36 -31 -75 -46.5t-87 -15.5q-40 0 -75 12l-19 -72l-24 6l21 76q-56 29 -86.5 91.5t-30.5 152.5q0 84 25 146t70.5 95.5t106.5 33.5q26 0 56 -7l18 65l23 -6l-19 -67q58 -24 87.5 -84.5t29.5 -148.5
q0 -22 -2 -40h-190zM155 442.5q-47 -57.5 -50 -170.5h153l61 222q-21 6 -46 6q-71 0 -118 -57.5zM409 416q-23 50 -68 70l-59 -214h150v23q0 71 -23 121zM250 243h-145q3 -75 26.5 -125t63.5 -74z" />
    <glyph glyph-name="uni1EBD" unicode="&#x1ebd;" horiz-adv-x="530" 
d="M464 243h-359q4 -111 52 -166.5t126 -55.5q42 0 74 13t70 42l18 -24q-36 -31 -75 -46.5t-87 -15.5q-99 0 -156.5 70.5t-57.5 195.5q0 84 25 146t70.5 95.5t106.5 33.5q96 0 145.5 -66.5t49.5 -181.5q0 -22 -2 -40zM432 295q0 95 -39.5 150t-119.5 55q-71 0 -118 -57.5
t-50 -170.5h327v23zM299 680.5q-16 6.5 -37 18.5q-3 1 -13 7t-18.5 8.5t-15.5 2.5q-17 0 -30.5 -8t-28.5 -28l-21 12q33 54 80 54q12 0 23.5 -4.5t22 -9.5t13.5 -7q18 -11 32 -16.5t27 -5.5q16 0 29 9.5t29 33.5l21 -12q-31 -61 -79 -61q-18 0 -34 6.5z" />
    <glyph glyph-name="uni01DD" unicode="&#x1dd;" horiz-adv-x="535" 
d="M413.5 463.5q52.5 -67.5 52.5 -199.5q0 -136 -55 -205t-149 -69q-92 0 -145 68.5t-53 185.5q0 15 2 33h364q-2 112 -45.5 167.5t-118.5 55.5q-42 0 -76.5 -12t-73.5 -38l-17 23q77 58 168 58q94 0 146.5 -67.5zM384.5 76.5q43.5 55.5 45.5 171.5h-331v-6
q0 -106 43 -163.5t120 -57.5q79 0 122.5 55.5z" />
    <glyph glyph-name="uni0292" unicode="&#x292;" horiz-adv-x="447" 
d="M413 2q0 -90 -55.5 -146t-152.5 -56q-59 0 -104 21t-82 63l22 19q36 -39 75 -55.5t89 -16.5q84 0 128 46t44 125q0 86 -47.5 124.5t-149.5 38.5h-53v31l218 293h-308v31h351v-27l-223 -297h16q232 0 232 -194z" />
    <glyph glyph-name="uni01EF" unicode="&#x1ef;" horiz-adv-x="447" 
d="M413 2q0 -90 -55.5 -146t-152.5 -56q-59 0 -104 21t-82 63l22 19q36 -39 75 -55.5t89 -16.5q84 0 128 46t44 125q0 86 -47.5 124.5t-149.5 38.5h-53v31l218 293h-308v31h351v-27l-223 -297h16q232 0 232 -194zM346 738l-124 -101h-19l-126 101l17 20l118 -85l118 85z" />
    <glyph glyph-name="uni0293" unicode="&#x293;" horiz-adv-x="447" 
d="M380.5 -105.5q-32.5 -48.5 -94.5 -73.5l27 -57l-29 -12l-28 60q-42 -12 -96 -12q-81 0 -123.5 30t-42.5 84q0 44 29 73t76 29q54 0 93.5 -35.5t81.5 -131.5q52 21 78 61t26 97q0 82 -48.5 120t-149.5 38h-53v31l218 293h-308v31h351v-27l-223 -297h18q230 0 230 -188
q0 -65 -32.5 -113.5zM161 -169q46 0 83 9q-36 84 -69 115t-75 31q-34 0 -53.5 -19t-19.5 -53q0 -83 134 -83z" />
    <glyph glyph-name="uni01B9" unicode="&#x1b9;" horiz-adv-x="447" 
d="M429 -116q-38 -42 -84.5 -63t-108.5 -21q-61 0 -106.5 25t-70 69.5t-24.5 100.5q0 92 58 146.5t176 54.5h13l-222 297v27h351v-31h-309l218 -293v-31h-53q-197 0 -197 -171q0 -73 43.5 -118t121.5 -45q54 0 95.5 17t76.5 55z" />
    <glyph glyph-name="uni01BA" unicode="&#x1ba;" horiz-adv-x="445" 
d="M61 -150q-26 26 -26 65q0 45 42.5 71t131.5 37q62 7 97 20t52 37t17 65q0 94 -114 94h-145v30l217 220h-299v31h346v-27l-224 -224h107q70 0 108.5 -32.5t38.5 -91.5q0 -72 -46 -105t-146 -47q-78 -10 -112.5 -27t-34.5 -52q0 -29 18 -48t61 -41l-11 -25q-52 24 -78 50z
" />
    <glyph glyph-name="f" unicode="f" horiz-adv-x="312" 
d="M151 612v-92h145l-5 -29h-140v-491h-34v491h-88v29h88v96q0 58 35.5 90.5t95.5 32.5q61 0 119 -29l-13 -27q-53 25 -103 25q-100 0 -100 -96z" />
    <glyph glyph-name="uni1E1F" unicode="&#x1e1f;" horiz-adv-x="312" 
d="M151 612v-92h145l-5 -29h-140v-491h-34v491h-88v29h88v96q0 58 35.5 90.5t95.5 32.5q61 0 119 -29l-13 -27q-53 25 -103 25q-100 0 -100 -96zM271.5 904q7.5 -8 7.5 -19q0 -12 -7.5 -20t-21.5 -8q-12 0 -20 8t-8 20q0 11 8 19t20 8q14 0 21.5 -8z" />
    <glyph glyph-name="uni02A9" unicode="&#x2a9;" horiz-adv-x="863" 
d="M755 0h-1v-80q0 -59 -29.5 -89.5t-77.5 -30.5q-51 0 -93 32l17 22q17 -11 34.5 -17.5t41.5 -6.5q33 0 53 21t20 69v81h1v365q0 69 -27.5 102t-82.5 33q-56 0 -99 -30.5t-83 -88.5v-382h-34v491h-244v-491h-34v491h-88v29h88v96q0 58 35.5 90.5t95.5 32.5q61 0 119 -29
l-13 -27q-53 25 -103 25q-100 0 -100 -96v-92h260h13l4 -97q78 108 186 108q70 0 105.5 -41.5t35.5 -118.5v-371z" />
    <glyph glyph-name="g" unicode="g" horiz-adv-x="491" 
d="M477 519q-47 -13 -138 -14q86 -43 86 -149q0 -76 -48.5 -122t-132.5 -46q-38 0 -69 11q-49 -28 -49 -69q0 -61 93 -61h86q74 0 116 -34.5t42 -90.5q0 -69 -53 -106.5t-159 -37.5q-112 0 -162 33.5t-50 109.5h33q1 -42 18.5 -66t55.5 -35t105 -11q177 0 177 111
q0 45 -33 70.5t-93 25.5h-86q-59 0 -92 24t-33 62q0 51 58 86q-88 45 -88 149q0 77 49.5 124.5t134.5 47.5h35q80 0 115.5 5.5t70.5 18.5zM134 462.5q-38 -38.5 -38 -103.5q0 -68 41 -105t107 -37q70 0 108 36.5t38 102.5t-36.5 105.5t-108.5 39.5q-73 0 -111 -38.5z" />
    <glyph glyph-name="uni01F5" unicode="&#x1f5;" horiz-adv-x="491" 
d="M477 519q-47 -13 -138 -14q86 -43 86 -149q0 -76 -48.5 -122t-132.5 -46q-38 0 -69 11q-49 -28 -49 -69q0 -61 93 -61h86q74 0 116 -34.5t42 -90.5q0 -69 -53 -106.5t-159 -37.5q-112 0 -162 33.5t-50 109.5h33q1 -42 18.5 -66t55.5 -35t105 -11q177 0 177 111
q0 45 -33 70.5t-93 25.5h-86q-59 0 -92 24t-33 62q0 51 58 86q-88 45 -88 149q0 77 49.5 124.5t134.5 47.5h35q80 0 115.5 5.5t70.5 18.5zM134 462.5q-38 -38.5 -38 -103.5q0 -68 41 -105t107 -37q70 0 108 36.5t38 102.5t-36.5 105.5t-108.5 39.5q-73 0 -111 -38.5z
M334 734l-184 -84l-12 23l180 96z" />
    <glyph glyph-name="uni0263" unicode="&#x263;" horiz-adv-x="451" 
d="M245 46q29 -57 43 -95.5t14 -71.5q0 -35 -20.5 -57t-55.5 -22q-34 0 -55.5 22t-21.5 57q0 33 14 71t43 96l-187 474h38l169 -447l168 447h37zM259.5 -61.5q-9.5 29.5 -33.5 82.5q-24 -53 -34 -82t-10 -58q0 -51 44 -51q21 0 32 13t11 38q0 28 -9.5 57.5z" />
    <glyph glyph-name="gbreve" unicode="&#x11f;" horiz-adv-x="491" 
d="M477 519q-47 -13 -138 -14q86 -43 86 -149q0 -76 -48.5 -122t-132.5 -46q-38 0 -69 11q-49 -28 -49 -69q0 -61 93 -61h86q74 0 116 -34.5t42 -90.5q0 -69 -53 -106.5t-159 -37.5q-112 0 -162 33.5t-50 109.5h33q1 -42 18.5 -66t55.5 -35t105 -11q177 0 177 111
q0 45 -33 70.5t-93 25.5h-86q-59 0 -92 24t-33 62q0 51 58 86q-88 45 -88 149q0 77 49.5 124.5t134.5 47.5h35q80 0 115.5 5.5t70.5 18.5zM134 462.5q-38 -38.5 -38 -103.5q0 -68 41 -105t107 -37q70 0 108 36.5t38 102.5t-36.5 105.5t-108.5 39.5q-73 0 -111 -38.5z
M168.5 686q-31.5 26 -38.5 68l25 6q9 -33 32 -51t58 -18t58.5 18t32.5 51l25 -6q-7 -42 -38.5 -68t-77.5 -26q-45 0 -76.5 26z" />
    <glyph glyph-name="gcaron" unicode="&#x1e7;" horiz-adv-x="491" 
d="M477 519q-47 -13 -138 -14q86 -43 86 -149q0 -76 -48.5 -122t-132.5 -46q-38 0 -69 11q-49 -28 -49 -69q0 -61 93 -61h86q74 0 116 -34.5t42 -90.5q0 -69 -53 -106.5t-159 -37.5q-112 0 -162 33.5t-50 109.5h33q1 -42 18.5 -66t55.5 -35t105 -11q177 0 177 111
q0 45 -33 70.5t-93 25.5h-86q-59 0 -92 24t-33 62q0 51 58 86q-88 45 -88 149q0 77 49.5 124.5t134.5 47.5h35q80 0 115.5 5.5t70.5 18.5zM134 462.5q-38 -38.5 -38 -103.5q0 -68 41 -105t107 -37q70 0 108 36.5t38 102.5t-36.5 105.5t-108.5 39.5q-73 0 -111 -38.5z
M380 738l-124 -101h-19l-126 101l17 20l118 -85l118 85z" />
    <glyph glyph-name="gcircumflex" unicode="&#x11d;" horiz-adv-x="491" 
d="M477 519q-47 -13 -138 -14q86 -43 86 -149q0 -76 -48.5 -122t-132.5 -46q-38 0 -69 11q-49 -28 -49 -69q0 -61 93 -61h86q74 0 116 -34.5t42 -90.5q0 -69 -53 -106.5t-159 -37.5q-112 0 -162 33.5t-50 109.5h33q1 -42 18.5 -66t55.5 -35t105 -11q177 0 177 111
q0 45 -33 70.5t-93 25.5h-86q-59 0 -92 24t-33 62q0 51 58 86q-88 45 -88 149q0 77 49.5 124.5t134.5 47.5h35q80 0 115.5 5.5t70.5 18.5zM134 462.5q-38 -38.5 -38 -103.5q0 -68 41 -105t107 -37q70 0 108 36.5t38 102.5t-36.5 105.5t-108.5 39.5q-73 0 -111 -38.5z
M111 670l125 100h19l125 -100l-16 -20l-119 85l-117 -85z" />
    <glyph glyph-name="gcommaaccent" unicode="&#x123;" horiz-adv-x="491" 
d="M477 519q-47 -13 -138 -14q86 -43 86 -149q0 -76 -48.5 -122t-132.5 -46q-38 0 -69 11q-49 -28 -49 -69q0 -61 93 -61h86q74 0 116 -34.5t42 -90.5q0 -69 -53 -106.5t-159 -37.5q-112 0 -162 33.5t-50 109.5h33q1 -42 18.5 -66t55.5 -35t105 -11q177 0 177 111
q0 45 -33 70.5t-93 25.5h-86q-59 0 -92 24t-33 62q0 51 58 86q-88 45 -88 149q0 77 49.5 124.5t134.5 47.5h35q80 0 115.5 5.5t70.5 18.5zM134 462.5q-38 -38.5 -38 -103.5q0 -68 41 -105t107 -37q70 0 108 36.5t38 102.5t-36.5 105.5t-108.5 39.5q-73 0 -111 -38.5z
M221 601.5q-9 9.5 -9 23.5q0 11 3.5 21t16.5 37l39 86h23l-34 -113q20 -8 20 -31q0 -14 -9.5 -23.5t-23.5 -9.5q-17 0 -26 9.5z" />
    <glyph glyph-name="gdotaccent" unicode="&#x121;" horiz-adv-x="491" 
d="M477 519q-47 -13 -138 -14q86 -43 86 -149q0 -76 -48.5 -122t-132.5 -46q-38 0 -69 11q-49 -28 -49 -69q0 -61 93 -61h86q74 0 116 -34.5t42 -90.5q0 -69 -53 -106.5t-159 -37.5q-112 0 -162 33.5t-50 109.5h33q1 -42 18.5 -66t55.5 -35t105 -11q177 0 177 111
q0 45 -33 70.5t-93 25.5h-86q-59 0 -92 24t-33 62q0 51 58 86q-88 45 -88 149q0 77 49.5 124.5t134.5 47.5h35q80 0 115.5 5.5t70.5 18.5zM134 462.5q-38 -38.5 -38 -103.5q0 -68 41 -105t107 -37q70 0 108 36.5t38 102.5t-36.5 105.5t-108.5 39.5q-73 0 -111 -38.5z
M266.5 726q7.5 -8 7.5 -19q0 -12 -7.5 -20t-21.5 -8q-12 0 -20 8t-8 20q0 11 8 19t20 8q14 0 21.5 -8z" />
    <glyph glyph-name="uni0260" unicode="&#x260;" horiz-adv-x="576" 
d="M628 707l-16 -22q-18 12 -35.5 18t-41.5 6q-72 0 -72 -90v-625q0 -95 -43 -144.5t-142 -49.5q-79 0 -140 35l15 24q26 -13 55.5 -21t69.5 -8q83 0 117 40t34 124v110q-53 -94 -161 -94q-58 0 -102 31.5t-68 90t-24 136.5q0 76 24.5 135.5t70.5 93.5t109 34q93 0 151 -76
v164q0 59 28.5 89.5t77.5 30.5q53 0 93 -32zM363.5 68.5q37.5 27.5 65.5 82.5v262q-57 87 -148 87q-50 0 -89 -28.5t-60.5 -81t-21.5 -122.5q0 -105 43 -166t117 -61q56 0 93.5 27.5z" />
    <glyph glyph-name="uni01BE" unicode="&#x1be;" horiz-adv-x="493" 
d="M372 350.5q52 -47.5 52 -145.5q0 -61 -24.5 -108.5t-70.5 -74t-108 -26.5q-57 0 -100.5 19.5t-85.5 58.5l22 21q38 -33 75.5 -50.5t87.5 -17.5q79 0 123.5 48.5t44.5 130.5t-43 121.5t-112 56.5l-65 16v167h-68v29h68v138l34 6v-144h120v-29h-120v-144l36 -8
q82 -17 134 -64.5z" />
    <glyph glyph-name="uni0294" unicode="&#x294;" horiz-adv-x="428" 
d="M133 334l65 17q70 18 112.5 56.5t42.5 121.5q0 81 -44.5 129.5t-124.5 48.5q-49 0 -87.5 -17.5t-75.5 -50.5l-22 21q43 40 86.5 59.5t99.5 19.5q63 0 109 -27t70.5 -74.5t24.5 -108.5q0 -97 -51.5 -142.5t-135.5 -66.5l-34 -9v-311h-35v334z" />
    <glyph glyph-name="uni0296" unicode="&#x296;" horiz-adv-x="493" 
d="M202 740v-317l36 -8q82 -17 134 -64.5t52 -145.5q0 -61 -24.5 -108.5t-70.5 -74t-108 -26.5q-57 0 -100.5 19.5t-85.5 58.5l22 21q38 -33 75.5 -50.5t87.5 -17.5q79 0 123.5 48.5t44.5 130.5t-43 121.5t-112 56.5l-65 16v334z" />
    <glyph glyph-name="uni0295" unicode="&#x295;" horiz-adv-x="428" 
d="M260 0v311l-34 9q-84 21 -135.5 66.5t-51.5 142.5q0 61 25.5 108.5t73 74.5t110.5 27q54 0 96 -19.5t85 -59.5l-22 -21q-37 33 -74.5 50.5t-83.5 17.5q-81 0 -127.5 -48.5t-46.5 -129.5q0 -83 42.5 -121.5t112.5 -56.5l65 -17v-334h-35z" />
    <glyph glyph-name="uni0242" unicode="&#x242;" horiz-adv-x="419" 
d="M133 177l72 18q129 32 129 157q0 67 -41.5 107t-109.5 40q-48 0 -83.5 -15.5t-69.5 -42.5l-20 21q37 33 78 51t96 18q54 0 96 -23t65.5 -63.5t23.5 -92.5q0 -82 -45 -126t-113 -61l-44 -10v-155h-34v177z" />
    <glyph glyph-name="uni02A1" unicode="&#x2a1;" horiz-adv-x="428" 
d="M168 311v-105h118v-30h-118v-176h-35v176h-68v30h68v128l65 17q70 18 112.5 56.5t42.5 121.5q0 81 -44.5 129.5t-124.5 48.5q-49 0 -87.5 -17.5t-75.5 -50.5l-22 21q43 40 86.5 59.5t99.5 19.5q63 0 109 -27t70.5 -74.5t24.5 -108.5q0 -97 -51.5 -142.5t-135.5 -66.5z
" />
    <glyph glyph-name="uni02A2" unicode="&#x2a2;" horiz-adv-x="428" 
d="M121.5 658.5q-46.5 -48.5 -46.5 -129.5q0 -83 42.5 -121.5t112.5 -56.5l65 -17v-128h73v-30h-73v-176h-35v176h-114v30h114v105l-34 9q-84 21 -135.5 66.5t-51.5 142.5q0 61 25.5 108.5t73 74.5t110.5 27q54 0 96 -19.5t85 -59.5l-22 -21q-37 33 -74.5 50.5t-83.5 17.5
q-81 0 -127.5 -48.5z" />
    <glyph glyph-name="uni0261" unicode="&#x261;" horiz-adv-x="576" 
d="M463 520v-526q0 -95 -43 -144.5t-142 -49.5q-79 0 -140 35l15 24q26 -13 55.5 -21t69.5 -8q83 0 117 40t34 124v110q-53 -94 -161 -94q-58 0 -102 31.5t-68 90t-24 136.5q0 76 24.5 135.5t70.5 93.5t109 34q95 0 152 -78l3 67h30zM363.5 68.5q37.5 27.5 65.5 82.5v262
q-57 87 -148 87q-50 0 -89 -28.5t-60.5 -81t-21.5 -122.5q0 -105 43 -166t117 -61q56 0 93.5 27.5z" />
    <glyph glyph-name="uni01E5" unicode="&#x1e5;" horiz-adv-x="491" 
d="M521 -73h-58q-7 -61 -59.5 -94t-152.5 -33q-112 0 -162 33.5t-50 109.5h33q1 -42 18.5 -66t55.5 -35t105 -11q166 0 177 96h-158v31h158q-6 38 -38.5 59t-87.5 21h-86q-59 0 -92 24t-33 62q0 51 58 86q-88 45 -88 149q0 77 49.5 124.5t134.5 47.5h35q80 0 115.5 5.5
t70.5 18.5l11 -36q-47 -13 -138 -14q86 -43 86 -149q0 -76 -48.5 -122t-132.5 -46q-38 0 -69 11q-49 -28 -49 -69q0 -61 93 -61h86q69 0 111 -30.5t47 -80.5h58v-31zM137 254q41 -37 107 -37q70 0 108 36.5t38 102.5t-36.5 105.5t-108.5 39.5q-73 0 -111 -38.5t-38 -103.5
q0 -68 41 -105z" />
    <glyph glyph-name="h" unicode="h" horiz-adv-x="582" 
d="M438 488.5q36 -42.5 36 -117.5v-371h-34v366q0 135 -110 135q-56 0 -99 -30.5t-83 -88.5v-382h-34v734l34 6v-317q78 108 185 108q69 0 105 -42.5z" />
    <glyph glyph-name="hbar" unicode="&#x127;" horiz-adv-x="587" 
d="M443 488.5q36 -42.5 36 -117.5v-371h-34v366q0 135 -110 135q-56 0 -99 -30.5t-83 -88.5v-382h-34v624h-75v30h75v80l34 6v-86h177v-30h-177v-201q76 108 185 108q69 0 105 -42.5z" />
    <glyph glyph-name="uni021F" unicode="&#x21f;" horiz-adv-x="582" 
d="M438 488.5q36 -42.5 36 -117.5v-371h-34v366q0 135 -110 135q-56 0 -99 -30.5t-83 -88.5v-382h-34v734l34 6v-317q78 108 185 108q69 0 105 -42.5zM430 905l-124 -95h-19l-126 95l17 20l118 -80l118 80z" />
    <glyph glyph-name="hcircumflex" unicode="&#x125;" horiz-adv-x="582" 
d="M438 488.5q36 -42.5 36 -117.5v-371h-34v366q0 135 -110 135q-56 0 -99 -30.5t-83 -88.5v-382h-34v734l34 6v-317q78 108 185 108q69 0 105 -42.5zM296 896l-118 -79l-17 19l126 95h19l124 -95l-16 -19z" />
    <glyph glyph-name="uni1E25" unicode="&#x1e25;" horiz-adv-x="582" 
d="M438 488.5q36 -42.5 36 -117.5v-371h-34v366q0 135 -110 135q-56 0 -99 -30.5t-83 -88.5v-382h-34v734l34 6v-317q78 108 185 108q69 0 105 -42.5zM273.5 -141q-7.5 8 -7.5 19t7.5 19t21.5 8q12 0 20 -8t8 -19t-8 -19t-20 -8q-14 0 -21.5 8z" />
    <glyph glyph-name="uni0267" unicode="&#x267;" horiz-adv-x="582" 
d="M444.5 -169.5q-29.5 -30.5 -77.5 -30.5q-53 0 -93 32l16 22q18 -12 35 -18t41 -6q33 0 53.5 21t20.5 69v446q0 135 -110 135q-56 0 -99 -30.5t-83 -88.5v-382h-34v519h-1v97q0 58 36 90.5t96 32.5q62 0 118 -29l-13 -27q-53 25 -103 25q-100 0 -100 -96v-86h1v-103
q78 108 185 108q69 0 105 -42.5t36 -117.5v-451q0 -59 -29.5 -89.5z" />
    <glyph glyph-name="uni0266" unicode="&#x266;" horiz-adv-x="582" 
d="M438 488.5q36 -42.5 36 -117.5v-371h-34v366q0 135 -110 135q-56 0 -99 -30.5t-83 -88.5v-382h-34v616q0 58 35.5 90.5t95.5 32.5q61 0 119 -29l-14 -27q-53 25 -103 25q-99 0 -99 -96v-189q78 108 185 108q69 0 105 -42.5z" />
    <glyph glyph-name="uni0265" unicode="&#x265;" horiz-adv-x="582" 
d="M469 520v-720l-34 6v291q-79 -107 -185 -107q-69 0 -105 42t-36 118v370h34v-365q0 -135 109 -135q56 0 99 30.5t84 87.5v382h34z" />
    <glyph glyph-name="uni0195" unicode="&#x195;" horiz-adv-x="890" 
d="M801 264q0 -92 -26.5 -153.5t-71.5 -91t-101 -29.5q-72 0 -117 43t-45 123v210q0 135 -110 135q-56 0 -99 -30.5t-83 -88.5v-382h-34v734l34 6v-317q78 108 185 108q69 0 105 -42.5t36 -117.5v-213q0 -69 35 -103t93 -34q69 0 116.5 57.5t47.5 186.5q0 101 -26 255h35
q26 -152 26 -256z" />
    <glyph glyph-name="i" unicode="i" horiz-adv-x="261" 
d="M148 0h-34v520h34v-520zM151.5 726q7.5 -8 7.5 -19q0 -12 -7.5 -20t-21.5 -8q-12 0 -20 8t-8 20q0 11 8 19t20 8q14 0 21.5 -8z" />
    <glyph glyph-name="dotlessi" unicode="&#x131;" horiz-adv-x="261" 
d="M148 0h-34v520h34v-520z" />
    <glyph glyph-name="iacute" unicode="&#xed;" horiz-adv-x="261" 
d="M148 0h-34v520h34v-520zM219 734l-184 -84l-12 23l180 96z" />
    <glyph glyph-name="ibreve" unicode="&#x12d;" horiz-adv-x="261" 
d="M148 0h-34v520h34v-520zM53.5 686q-31.5 26 -38.5 68l25 6q9 -33 32 -51t58 -18t58.5 18t32.5 51l25 -6q-7 -42 -38.5 -68t-77.5 -26q-45 0 -76.5 26z" />
    <glyph glyph-name="uni01D0" unicode="&#x1d0;" horiz-adv-x="261" 
d="M148 0h-34v520h34v-520zM265 738l-124 -101h-19l-126 101l17 20l118 -85l118 85z" />
    <glyph glyph-name="icircumflex" unicode="&#xee;" horiz-adv-x="261" 
d="M148 0h-34v520h34v-520zM-4 670l125 100h19l125 -100l-16 -20l-119 85l-117 -85z" />
    <glyph glyph-name="uni0209" unicode="&#x209;" horiz-adv-x="261" 
d="M101 660l-24 -12l-84 131l34 17zM207 664l-24 -12l-76 126l34 18zM148 0h-34v520h34v-520z" />
    <glyph glyph-name="idieresis" unicode="&#xef;" horiz-adv-x="261" 
d="M148 0h-34v520h34v-520zM62 715.5q8 -7.5 8 -19.5q0 -11 -8 -19t-20 -8t-19.5 8t-7.5 19t7.5 19t19.5 8t20 -7.5zM237 715.5q8 -7.5 8 -19.5q0 -11 -8 -19t-20 -8q-13 0 -20.5 8t-7.5 19q0 12 7.5 19.5t20.5 7.5q12 0 20 -7.5z" />
    <glyph glyph-name="uni1E2F" unicode="&#x1e2f;" horiz-adv-x="261" 
d="M232 813l-109 -115l-18 16l101 123zM62.5 685.5q7.5 -7.5 7.5 -19.5q0 -11 -7.5 -19t-20.5 -8q-12 0 -19.5 8t-7.5 19t7.5 19t19.5 8q13 0 20.5 -7.5zM237.5 685.5q7.5 -7.5 7.5 -19.5q0 -11 -7.5 -19t-20.5 -8q-12 0 -20 8t-8 19q0 12 8 19.5t20 7.5q13 0 20.5 -7.5z
M148 0h-34v520h34v-520z" />
    <glyph glyph-name="i.loclTRK" horiz-adv-x="261" 
d="M148 0h-34v520h34v-520zM151.5 726q7.5 -8 7.5 -19q0 -12 -7.5 -20t-21.5 -8q-12 0 -20 8t-8 20q0 11 8 19t20 8q14 0 21.5 -8z" />
    <glyph glyph-name="uni1ECB" unicode="&#x1ecb;" horiz-adv-x="261" 
d="M148 0h-34v520h34v-520zM151.5 726q7.5 -8 7.5 -19q0 -12 -7.5 -20t-21.5 -8q-12 0 -20 8t-8 20q0 11 8 19t20 8q14 0 21.5 -8zM109.5 -141q-7.5 8 -7.5 19t7.5 19t21.5 8q12 0 20 -8t8 -19t-8 -19t-20 -8q-14 0 -21.5 8z" />
    <glyph glyph-name="igrave" unicode="&#xec;" horiz-adv-x="261" 
d="M148 0h-34v520h34v-520zM229 673l-12 -23l-184 84l16 35z" />
    <glyph glyph-name="uni1EC9" unicode="&#x1ec9;" horiz-adv-x="261" 
d="M148 0h-34v520h34v-520zM112 696q68 2 68 49q0 21 -13 32.5t-36 11.5q-30 0 -58 -14l-12 24q33 19 72 19q38 0 60 -19.5t22 -51.5q0 -63 -70 -71v-56h-33v76z" />
    <glyph glyph-name="uni020B" unicode="&#x20b;" horiz-adv-x="261" 
d="M148 0h-34v520h34v-520zM207.5 703.5q31.5 -26.5 38.5 -68.5l-25 -5q-9 33 -32.5 50.5t-58.5 17.5t-58 -17.5t-32 -50.5l-25 5q7 42 38.5 68.5t76.5 26.5q46 0 77.5 -26.5z" />
    <glyph glyph-name="ij" unicode="&#x133;" horiz-adv-x="523" 
d="M148 0h-34v520h34v-520zM151.5 726q7.5 -8 7.5 -19q0 -12 -7.5 -20t-21.5 -8q-12 0 -20 8t-8 20q0 11 8 19t20 8q14 0 21.5 -8zM410 10q0 -65 -13 -102.5t-38 -59.5t-71 -45l-10 25q38 20 58 39.5t30 52.5t10 90v510h34v-510zM412.5 726q7.5 -8 7.5 -19q0 -12 -7.5 -20
t-21.5 -8q-12 0 -20 8t-8 20q0 11 8 19t20 8q14 0 21.5 -8z" />
    <glyph glyph-name="imacron" unicode="&#x12b;" horiz-adv-x="261" 
d="M148 0h-34v520h34v-520zM22 682v32h218v-32h-218z" />
    <glyph glyph-name="iogonek" unicode="&#x12f;" horiz-adv-x="261" 
d="M151.5 726q7.5 -8 7.5 -19q0 -12 -7.5 -20t-21.5 -8q-12 0 -20 8t-8 20q0 11 8 19t20 8q14 0 21.5 -8zM43.5 -160.5q16.5 -14.5 50.5 -14.5q24 0 56 6l-3 -33q-30 -6 -55 -6q-50 0 -75.5 23.5t-25.5 61.5q0 42 30 73t93 59v511h34v-520q-65 -30 -93 -56t-28 -65
q0 -25 16.5 -39.5z" />
    <glyph glyph-name="uni0269" unicode="&#x269;" horiz-adv-x="278" 
d="M130.5 11.5q-21.5 21.5 -21.5 65.5v443h34v-442q0 -57 48 -57q19 0 38 8l10 -28q-24 -11 -50 -11q-37 0 -58.5 21.5z" />
    <glyph glyph-name="uni0268" unicode="&#x268;" horiz-adv-x="291" 
d="M124 687q-8 8 -8 20q0 11 8 19t20 8q14 0 21.5 -8t7.5 -19q0 -12 -7.5 -20t-21.5 -8q-12 0 -20 8zM271 267h-109v-267h-34v267h-108v31h108v222h34v-222h109v-31z" />
    <glyph glyph-name="itilde" unicode="&#x129;" horiz-adv-x="261" 
d="M148 0h-34v520h34v-520zM156 680.5q-16 6.5 -37 18.5q-3 1 -13 7t-18.5 8.5t-15.5 2.5q-17 0 -30.5 -8t-28.5 -28l-21 12q33 54 80 54q12 0 23.5 -4.5t22 -9.5t13.5 -7q18 -11 32 -16.5t27 -5.5q16 0 29 9.5t29 33.5l21 -12q-31 -61 -79 -61q-18 0 -34 6.5z" />
    <glyph glyph-name="j" unicode="j" horiz-adv-x="262" 
d="M149 10q0 -65 -13 -102.5t-38 -59.5t-71 -45l-10 25q38 20 58 39.5t30 52.5t10 90v510h34v-510zM151.5 726q7.5 -8 7.5 -19q0 -12 -7.5 -20t-21.5 -8q-12 0 -20 8t-8 20q0 11 8 19t20 8q14 0 21.5 -8z" />
    <glyph glyph-name="uni0237" unicode="&#x237;" horiz-adv-x="262" 
d="M149 10q0 -65 -13 -102.5t-38 -59.5t-71 -45l-10 25q38 20 58 39.5t30 52.5t10 90v510h34v-510z" />
    <glyph glyph-name="uni01F0" unicode="&#x1f0;" horiz-adv-x="262" 
d="M149 10q0 -65 -13 -102.5t-38 -59.5t-71 -45l-10 25q38 20 58 39.5t30 52.5t10 90v510h34v-510zM265 738l-124 -101h-19l-126 101l17 20l118 -85l118 85z" />
    <glyph glyph-name="jcircumflex" unicode="&#x135;" horiz-adv-x="262" 
d="M149 10q0 -65 -13 -102.5t-38 -59.5t-71 -45l-10 25q38 20 58 39.5t30 52.5t10 90v510h34v-510zM-4 670l125 100h19l125 -100l-16 -20l-119 85l-117 -85z" />
    <glyph glyph-name="uni029D" unicode="&#x29d;" horiz-adv-x="274" 
d="M123 687q-8 8 -8 20q0 11 8 19t20 8q14 0 21.5 -8t7.5 -19q0 -12 -7.5 -20t-21.5 -8q-12 0 -20 8zM249 -84q-43 20 -89 32q-6 -148 -134 -148q-48 0 -77.5 25.5t-29.5 64.5q0 46 36.5 73.5t95.5 27.5q28 0 75 -7v536h34v-543q56 -15 101 -37zM100 -141q25 30 26 96
q-38 7 -74 7q-49 0 -74.5 -19t-25.5 -52q0 -28 19.5 -45t54.5 -17q49 0 74 30z" />
    <glyph glyph-name="uni025F" unicode="&#x25f;" horiz-adv-x="291" 
d="M271 228h-105v-218q0 -65 -13 -102.5t-38 -59.5t-71 -45l-10 25q38 20 58 39.5t30 52.5t10 90v218h-112v31h112v261h34v-261h105v-31z" />
    <glyph glyph-name="uni0284" unicode="&#x284;" horiz-adv-x="291" 
d="M275 28v-28h-110q0 -61 -13.5 -96.5t-38 -56.5t-69.5 -44l-10 25q37 19 57 38t30 50t10 84h-108v28h109v591q0 59 28.5 89.5t77.5 30.5q53 0 93 -32l-16 -22q-18 12 -35.5 18t-41.5 6q-72 0 -72 -90v-591h109z" />
    <glyph glyph-name="uni0249" unicode="&#x249;" horiz-adv-x="291" 
d="M271 228h-105v-218q0 -65 -13 -102.5t-38 -59.5t-71 -45l-10 25q38 20 58 39.5t30 52.5t10 90v218h-112v31h112v261h34v-261h105v-31zM168.5 726q7.5 -8 7.5 -19q0 -12 -7.5 -20t-21.5 -8q-12 0 -20 8t-8 20q0 11 8 19t20 8q14 0 21.5 -8z" />
    <glyph glyph-name="k" unicode="k" horiz-adv-x="472" 
d="M148 0h-34v734l34 5v-739zM196 286l262 -286h-42l-262 284l238 236h42z" />
    <glyph glyph-name="uni01E9" unicode="&#x1e9;" horiz-adv-x="472" 
d="M148 0h-34v734l34 5v-739zM196 286l262 -286h-42l-262 284l238 236h42zM395 905l-124 -95h-19l-126 95l17 20l118 -80l118 80z" />
    <glyph glyph-name="kcommaaccent" unicode="&#x137;" horiz-adv-x="472" 
d="M148 0h-34v734l34 5v-739zM196 286l262 -286h-42l-262 284l238 236h42zM292 -99.5q9 -9.5 9 -23.5q0 -11 -5 -24.5t-14 -33.5l-39 -86h-24l34 113q-20 9 -20 31q0 14 9.5 23.5t24.5 9.5q16 0 25 -9.5z" />
    <glyph glyph-name="kgreenlandic" unicode="&#x138;" horiz-adv-x="472" 
d="M148 0h-34v520h34v-520zM196 276l262 -276h-42l-262 274l237 246h43z" />
    <glyph glyph-name="uni0199" unicode="&#x199;" horiz-adv-x="472" 
d="M148 612v-612h-34v616q0 58 35.5 90.5t95.5 32.5q61 0 119 -29l-14 -27q-53 25 -103 25q-99 0 -99 -96zM458 0h-42l-262 284l238 236h42l-238 -234z" />
    <glyph glyph-name="uni029E" unicode="&#x29e;" horiz-adv-x="472" 
d="M276 235l-262 285h42l262 -284l-238 -236h-42zM324 520h34v-720l-34 6v714z" />
    <glyph glyph-name="l" unicode="l" horiz-adv-x="278" 
d="M130.5 11.5q-21.5 21.5 -21.5 65.5v657l34 5v-661q0 -57 48 -57q19 0 38 8l10 -28q-24 -11 -50 -11q-37 0 -58.5 21.5z" />
    <glyph glyph-name="lacute" unicode="&#x13a;" horiz-adv-x="278" 
d="M130.5 11.5q-21.5 21.5 -21.5 65.5v657l34 5v-661q0 -57 48 -57q19 0 38 8l10 -28q-24 -11 -50 -11q-37 0 -58.5 21.5zM223 889l-186 -76l-10 22l178 89z" />
    <glyph glyph-name="uni019B" unicode="&#x19b;" horiz-adv-x="456" 
d="M332.5 257.5q31.5 -94.5 57.5 -140.5t72 -111l-32 -12q-43 62 -70 110t-58 140.5t-61 241.5l-169 -492l-33 8l182 517h15q-16 75 -39 115l-72 -74l-28 11l84 86q-33 40 -99 56l5 26q79 -18 115 -60l70 73l22 -19l-75 -76q17 -26 29 -61.5t22 -87.5q31 -156 62.5 -250.5z
" />
    <glyph glyph-name="uni019A" unicode="&#x19a;" horiz-adv-x="291" 
d="M163 357v-279q0 -57 48 -57q20 0 38 8l10 -28q-24 -11 -50 -11q-37 0 -58.5 21.5t-21.5 65.5v280h-109v31h109v346l34 5v-351h108v-31h-108z" />
    <glyph glyph-name="uni026C" unicode="&#x26c;" horiz-adv-x="303" 
d="M273 1q-26 -11 -51 -11q-36 0 -58 21.5t-22 65.5v198q-60 0 -91.5 22.5t-31.5 66.5q0 39 27 62t68 23q12 0 28 -2v287l34 5v-435q43 1 86 9l4 -27q-44 -9 -90 -10v-198q0 -57 48 -57q20 0 39 8zM142 304v114q-16 2 -28 2q-28 0 -45 -14t-17 -41q0 -61 90 -61z" />
    <glyph glyph-name="lcaron" unicode="&#x13e;" horiz-adv-x="278" 
d="M130.5 11.5q-21.5 21.5 -21.5 65.5v657l34 5v-661q0 -57 48 -57q19 0 38 8l10 -28q-24 -11 -50 -11q-37 0 -58.5 21.5zM266 734l-31 -150l-23 3l18 151z" />
    <glyph glyph-name="uni1E3D" unicode="&#x1e3d;" horiz-adv-x="278" 
d="M130.5 11.5q-21.5 21.5 -21.5 65.5v657l34 5v-661q0 -57 48 -57q19 0 38 8l10 -28q-24 -11 -50 -11q-37 0 -58.5 21.5zM44 -172l125 101h19l125 -101l-16 -19l-119 85l-117 -85z" />
    <glyph glyph-name="lcommaaccent" unicode="&#x13c;" horiz-adv-x="278" 
d="M130.5 11.5q-21.5 21.5 -21.5 65.5v657l34 5v-661q0 -57 48 -57q19 0 38 8l10 -28q-24 -11 -50 -11q-37 0 -58.5 21.5zM204 -99.5q9 -9.5 9 -23.5q0 -11 -5 -24.5t-14 -33.5l-39 -86h-24l34 113q-20 9 -20 31q0 14 9.5 23.5t24.5 9.5q16 0 25 -9.5z" />
    <glyph glyph-name="uni0234" unicode="&#x234;" horiz-adv-x="342" 
d="M346 162q26 -25 26 -62q0 -49 -37.5 -79.5t-95.5 -30.5q-60 0 -95 35l-43 -83l-28 12l51 97q-15 29 -15 68v615l34 5v-621q0 -10 2 -28q26 47 57.5 72t75.5 25q42 0 68 -25zM310.5 42q27.5 21 27.5 58q0 26 -16 41.5t-44 15.5q-40 0 -65.5 -24t-53.5 -77q23 -35 80 -35
q44 0 71.5 21z" />
    <glyph glyph-name="ldot" unicode="&#x140;" horiz-adv-x="280" 
d="M130.5 11.5q-21.5 21.5 -21.5 65.5v657l34 5v-661q0 -57 48 -57q19 0 38 8l10 -28q-24 -11 -50 -11q-37 0 -58.5 21.5zM285.5 394q7.5 -8 7.5 -19q0 -12 -7.5 -20t-21.5 -8q-12 0 -20 8t-8 20q0 11 8 19t20 8q14 0 21.5 -8z" />
    <glyph glyph-name="uni1E37" unicode="&#x1e37;" horiz-adv-x="278" 
d="M130.5 11.5q-21.5 21.5 -21.5 65.5v657l34 5v-661q0 -57 48 -57q19 0 38 8l10 -28q-24 -11 -50 -11q-37 0 -58.5 21.5zM157.5 -141q-7.5 8 -7.5 19t7.5 19t21.5 8q12 0 20 -8t8 -19t-8 -19t-20 -8q-14 0 -21.5 8z" />
    <glyph glyph-name="uni026E" unicode="&#x26e;" horiz-adv-x="606" 
d="M515 146.5q56 -49.5 56 -145.5q0 -90 -55.5 -145.5t-151.5 -55.5q-54 0 -96 17.5t-79 52.5l20 21q35 -32 72 -46t82 -14q84 0 129 46t45 124q0 87 -48 125.5t-150 38.5h-53v31l219 293h-362v-411q0 -57 48 -57q19 0 38 8l10 -28q-24 -11 -50 -11q-37 0 -58.5 21.5
t-21.5 65.5v657l34 5v-219h403v-27l-222 -297h13q122 0 178 -49.5z" />
    <glyph glyph-name="uni026D" unicode="&#x26d;" horiz-adv-x="261" 
d="M313 -168q-40 -32 -92 -32q-48 0 -77.5 30.5t-29.5 89.5v814l34 5v-819q0 -48 20 -69t53 -21q24 0 41.5 6.5t34.5 17.5z" />
    <glyph glyph-name="uni01C9" unicode="&#x1c9;" horiz-adv-x="550" 
d="M130.5 11.5q-21.5 21.5 -21.5 65.5v657l34 5v-661q0 -57 48 -57q19 0 38 8l10 -28q-24 -11 -50 -11q-37 0 -58.5 21.5zM437 10q0 -65 -13 -102.5t-38 -59.5t-71 -45l-10 25q38 20 58 39.5t30 52.5t10 90v510h34v-510zM439.5 726q7.5 -8 7.5 -19q0 -12 -7.5 -20t-21.5 -8
q-12 0 -20 8t-8 20q0 11 8 19t20 8q14 0 21.5 -8z" />
    <glyph glyph-name="uni026B" unicode="&#x26b;" horiz-adv-x="294" 
d="M152 336v-258q0 -57 48 -57q20 0 39 8l10 -28q-24 -11 -51 -11q-36 0 -58 21.5t-22 65.5v277q-34 18 -54 18q-23 0 -37 -9.5t-33 -32.5l-22 13q22 31 42 46.5t50 15.5q24 0 54 -14v343l34 5v-366q41 -24 65 -24q22 0 35 9.5t32 32.5l22 -14q-22 -31 -41 -46t-48 -15
q-27 0 -65 20z" />
    <glyph glyph-name="uni02AA" unicode="&#x2aa;" horiz-adv-x="632" 
d="M169 37q-60 47 -60 130v567l34 5v-571q0 -69 49.5 -108t143.5 -39q202 0 202 120q0 33 -12 54.5t-40.5 37.5t-81.5 30q-77 20 -111 52t-34 86q0 57 45 93.5t110 36.5q44 0 82 -14t75 -44l-20 -23q-35 26 -66 38t-70 12q-52 0 -86.5 -27t-34.5 -72t27.5 -68.5t99.5 -42.5
q83 -23 118 -56t35 -93q0 -72 -62.5 -111.5t-175.5 -39.5q-107 0 -167 47z" />
    <glyph glyph-name="lslash" unicode="&#x142;" horiz-adv-x="290" 
d="M236 29l10 -28q-24 -11 -50 -11q-37 0 -58.5 21.5t-21.5 65.5v260l-63 -38l-14 23l77 48v364l34 5v-348l103 64l14 -25l-117 -72v-280q0 -57 48 -57q19 0 38 8z" />
    <glyph glyph-name="uni02AB" unicode="&#x2ab;" horiz-adv-x="611" 
d="M576 493l-307 -462h302l-3 -31h-332q-22 -10 -47 -10q-37 0 -58.5 21.5t-21.5 65.5v657l34 5v-661q0 -57 48 -57q19 0 38 8l306 460h-281v31h322v-27z" />
    <glyph glyph-name="m" unicode="m" horiz-adv-x="850" 
d="M706.5 488.5q34.5 -42.5 34.5 -117.5v-371h-34v366q0 67 -25.5 101t-73.5 34q-91 0 -164 -119v-382h-34v366q0 67 -25.5 101t-73.5 34q-92 0 -163 -119v-382h-34v520h29l4 -96q32 49 75 78t91 29q51 0 84 -29t43 -83q33 52 77 82t93 30q62 0 96.5 -42.5z" />
    <glyph glyph-name="uni1E3F" unicode="&#x1e3f;" horiz-adv-x="850" 
d="M706.5 488.5q34.5 -42.5 34.5 -117.5v-371h-34v366q0 67 -25.5 101t-73.5 34q-91 0 -164 -119v-382h-34v366q0 67 -25.5 101t-73.5 34q-92 0 -163 -119v-382h-34v520h29l4 -96q32 49 75 78t91 29q51 0 84 -29t43 -83q33 52 77 82t93 30q62 0 96.5 -42.5zM513 734
l-184 -84l-12 23l180 96z" />
    <glyph glyph-name="uni1E41" unicode="&#x1e41;" horiz-adv-x="850" 
d="M706.5 488.5q34.5 -42.5 34.5 -117.5v-371h-34v366q0 67 -25.5 101t-73.5 34q-91 0 -164 -119v-382h-34v366q0 67 -25.5 101t-73.5 34q-92 0 -163 -119v-382h-34v520h29l4 -96q32 49 75 78t91 29q51 0 84 -29t43 -83q33 52 77 82t93 30q62 0 96.5 -42.5zM446.5 726
q7.5 -8 7.5 -19q0 -12 -7.5 -20t-21.5 -8q-12 0 -20 8t-8 20q0 11 8 19t20 8q14 0 21.5 -8z" />
    <glyph glyph-name="uni0271" unicode="&#x271;" horiz-adv-x="850" 
d="M711.5 -169.5q-29.5 -30.5 -77.5 -30.5q-51 0 -93 32l17 22q17 -11 34.5 -17.5t41.5 -6.5q33 0 53 21t20 69v446q0 67 -25.5 101t-73.5 34q-91 0 -164 -119v-382h-34v366q0 67 -25.5 101t-73.5 34q-92 0 -163 -119v-382h-34v520h29l4 -96q32 49 75 78t91 29q51 0 84 -29
t43 -83q33 52 77 82t93 30q62 0 96.5 -42.5t34.5 -117.5v-451q0 -59 -29.5 -89.5z" />
    <glyph glyph-name="uni0270" unicode="&#x270;" horiz-adv-x="850" 
d="M736 -200l-34 6v288q-33 -49 -75.5 -77t-89.5 -28q-52 0 -84.5 29.5t-42.5 83.5q-32 -52 -76 -82.5t-94 -30.5q-62 0 -96.5 42.5t-34.5 117.5v371h34v-366q0 -67 25.5 -101t73.5 -34q91 0 164 119v382h34v-366q0 -67 25.5 -101t73.5 -34q92 0 163 119v382h34v-720z" />
    <glyph glyph-name="uni026F" unicode="&#x26f;" horiz-adv-x="850" 
d="M736 520v-520h-30l-3 97q-32 -50 -75 -78.5t-92 -28.5q-51 0 -83.5 29t-43.5 81q-33 -51 -76.5 -80.5t-92.5 -29.5q-63 0 -97 42.5t-34 117.5v370h34v-365q0 -67 25.5 -101t73.5 -34q91 0 163 118v382h34v-365q0 -135 100 -135q89 0 163 118v382h34z" />
    <glyph glyph-name="n" unicode="n" horiz-adv-x="582" 
d="M438.5 489.5q35.5 -41.5 35.5 -118.5v-371h-34v366q0 69 -27.5 102t-82.5 33q-56 0 -99 -30.5t-83 -88.5v-382h-34v520h29l4 -97q76 108 186 108q70 0 105.5 -41.5z" />
    <glyph glyph-name="nacute" unicode="&#x144;" horiz-adv-x="582" 
d="M438.5 489.5q35.5 -41.5 35.5 -118.5v-371h-34v366q0 69 -27.5 102t-82.5 33q-56 0 -99 -30.5t-83 -88.5v-382h-34v520h29l4 -97q76 108 186 108q70 0 105.5 -41.5zM385 734l-184 -84l-12 23l180 96z" />
    <glyph glyph-name="nacute.loclPLK" horiz-adv-x="582" 
d="M438.5 489.5q35.5 -41.5 35.5 -118.5v-371h-34v366q0 69 -27.5 102t-82.5 33q-56 0 -99 -30.5t-83 -88.5v-382h-34v520h29l4 -97q76 108 186 108q70 0 105.5 -41.5zM398 732l-113 -154l-20 13l101 162z" />
    <glyph glyph-name="napostrophe" unicode="&#x149;" horiz-adv-x="647" 
d="M120 729.5q9 -9.5 9 -23.5q0 -9 -8 -30q-8 -17 -11 -28l-33 -92h-23l27 119q-12 4 -16 11t-4 20q0 14 9.5 23.5t24.5 9.5q16 0 25 -9.5zM503.5 489.5q35.5 -41.5 35.5 -118.5v-371h-34v366q0 69 -27.5 102t-82.5 33q-56 0 -99 -30.5t-83 -88.5v-382h-34v520h29l4 -97
q78 108 186 108q70 0 105.5 -41.5z" />
    <glyph glyph-name="ncaron" unicode="&#x148;" horiz-adv-x="582" 
d="M438.5 489.5q35.5 -41.5 35.5 -118.5v-371h-34v366q0 69 -27.5 102t-82.5 33q-56 0 -99 -30.5t-83 -88.5v-382h-34v520h29l4 -97q76 108 186 108q70 0 105.5 -41.5zM431 738l-124 -101h-19l-126 101l17 20l118 -85l118 85z" />
    <glyph glyph-name="uni1E4B" unicode="&#x1e4b;" horiz-adv-x="582" 
d="M438.5 489.5q35.5 -41.5 35.5 -118.5v-371h-34v366q0 69 -27.5 102t-82.5 33q-56 0 -99 -30.5t-83 -88.5v-382h-34v520h29l4 -97q76 108 186 108q70 0 105.5 -41.5zM154 -172l125 101h19l125 -101l-16 -19l-119 85l-117 -85z" />
    <glyph glyph-name="ncommaaccent" unicode="&#x146;" horiz-adv-x="582" 
d="M438.5 489.5q35.5 -41.5 35.5 -118.5v-371h-34v366q0 69 -27.5 102t-82.5 33q-56 0 -99 -30.5t-83 -88.5v-382h-34v520h29l4 -97q76 108 186 108q70 0 105.5 -41.5zM314 -99.5q9 -9.5 9 -23.5q0 -11 -5 -24.5t-14 -33.5l-39 -86h-24l34 113q-20 9 -20 31q0 14 9.5 23.5
t24.5 9.5q16 0 25 -9.5z" />
    <glyph glyph-name="uni0235" unicode="&#x235;" horiz-adv-x="673" 
d="M676.5 162q25.5 -25 25.5 -62q0 -49 -37.5 -79.5t-94.5 -30.5q-59 0 -96 35l-42 -83l-28 12l51 97q-15 29 -15 68v247q0 69 -27.5 102t-82.5 33q-56 0 -99 -30.5t-83 -88.5v-382h-34v520h29l4 -97q76 108 186 108q70 0 105.5 -41.5t35.5 -118.5v-253q0 -19 2 -28
q26 47 57.5 72t75.5 25q42 0 67.5 -25zM641.5 42q27.5 21 27.5 58q0 26 -16 41.5t-44 15.5q-40 0 -65.5 -24t-53.5 -77h-1q24 -35 81 -35q44 0 71.5 21z" />
    <glyph glyph-name="uni1E45" unicode="&#x1e45;" horiz-adv-x="582" 
d="M438.5 489.5q35.5 -41.5 35.5 -118.5v-371h-34v366q0 69 -27.5 102t-82.5 33q-56 0 -99 -30.5t-83 -88.5v-382h-34v520h29l4 -97q76 108 186 108q70 0 105.5 -41.5zM318.5 726q7.5 -8 7.5 -19q0 -12 -7.5 -20t-21.5 -8q-12 0 -20 8t-8 20q0 11 8 19t20 8q14 0 21.5 -8z
" />
    <glyph glyph-name="uni1E47" unicode="&#x1e47;" horiz-adv-x="582" 
d="M438.5 489.5q35.5 -41.5 35.5 -118.5v-371h-34v366q0 69 -27.5 102t-82.5 33q-56 0 -99 -30.5t-83 -88.5v-382h-34v520h29l4 -97q76 108 186 108q70 0 105.5 -41.5zM268.5 -141q-7.5 8 -7.5 19t7.5 19t21.5 8q12 0 20 -8t8 -19t-8 -19t-20 -8q-14 0 -21.5 8z" />
    <glyph glyph-name="uni01F9" unicode="&#x1f9;" horiz-adv-x="582" 
d="M438.5 489.5q35.5 -41.5 35.5 -118.5v-371h-34v366q0 69 -27.5 102t-82.5 33q-56 0 -99 -30.5t-83 -88.5v-382h-34v520h29l4 -97q76 108 186 108q70 0 105.5 -41.5zM395 673l-12 -23l-184 84l16 35z" />
    <glyph glyph-name="eng" unicode="&#x14b;" horiz-adv-x="582" 
d="M444.5 -169.5q-29.5 -30.5 -77.5 -30.5q-51 0 -93 32l17 22q17 -11 34.5 -17.5t41.5 -6.5q33 0 53 21t20 69v446q0 69 -27.5 102t-82.5 33q-56 0 -99 -30.5t-83 -88.5v-382h-34v520h29l4 -97q76 108 186 108q70 0 105.5 -41.5t35.5 -118.5v-451q0 -59 -29.5 -89.5z" />
    <glyph glyph-name="uni0272" unicode="&#x272;" horiz-adv-x="582" 
d="M438.5 489.5q35.5 -41.5 35.5 -118.5v-371h-34v366q0 69 -27.5 102t-82.5 33q-56 0 -99 -30.5t-83 -88.5v-462q0 -59 -29.5 -89.5t-77.5 -30.5q-51 0 -93 32l17 22q17 -11 34.5 -17.5t41.5 -6.5q33 0 53 21t20 69v600h29l4 -97q76 108 186 108q70 0 105.5 -41.5z" />
    <glyph glyph-name="uni0273" unicode="&#x273;" horiz-adv-x="582" 
d="M640 -168q-42 -32 -93 -32q-48 0 -77.5 30.5t-29.5 89.5v446q0 69 -27.5 102t-82.5 33q-56 0 -99 -30.5t-83 -88.5v-382h-34v520h29l4 -97q76 108 186 108q70 0 105.5 -41.5t35.5 -118.5v-451q0 -48 20 -69t53 -21q24 0 41.5 6.5t34.5 17.5z" />
    <glyph glyph-name="uni01CC" unicode="&#x1cc;" horiz-adv-x="844" 
d="M438.5 489.5q35.5 -41.5 35.5 -118.5v-371h-34v366q0 69 -27.5 102t-82.5 33q-56 0 -99 -30.5t-83 -88.5v-382h-34v520h29l4 -97q76 108 186 108q70 0 105.5 -41.5zM731 10q0 -65 -13 -102.5t-38 -59.5t-71 -45l-10 25q38 20 58 39.5t30 52.5t10 90v510h34v-510z
M733.5 726q7.5 -8 7.5 -19q0 -12 -7.5 -20t-21.5 -8q-12 0 -20 8t-8 20q0 11 8 19t20 8q14 0 21.5 -8z" />
    <glyph glyph-name="uni019E" unicode="&#x19e;" horiz-adv-x="582" 
d="M438.5 489.5q35.5 -41.5 35.5 -118.5v-571l-34 6v560q0 69 -27.5 102t-82.5 33q-56 0 -99 -30.5t-83 -88.5v-382h-34v520h29l4 -97q76 108 186 108q70 0 105.5 -41.5z" />
    <glyph glyph-name="ntilde" unicode="&#xf1;" horiz-adv-x="582" 
d="M438.5 489.5q35.5 -41.5 35.5 -118.5v-371h-34v366q0 69 -27.5 102t-82.5 33q-56 0 -99 -30.5t-83 -88.5v-382h-34v520h29l4 -97q76 108 186 108q70 0 105.5 -41.5zM322 680.5q-16 6.5 -37 18.5q-3 1 -13 7t-18.5 8.5t-15.5 2.5q-17 0 -30.5 -8t-28.5 -28l-21 12
q33 54 80 54q12 0 23.5 -4.5t22 -9.5t13.5 -7q18 -11 32 -16.5t27 -5.5q16 0 29 9.5t29 33.5l21 -12q-31 -61 -79 -61q-18 0 -34 6.5z" />
    <glyph glyph-name="o" unicode="o" horiz-adv-x="562" 
d="M437 461q56 -70 56 -199q0 -128 -57 -200t-155 -72q-99 0 -155.5 71.5t-56.5 197.5q0 128 57.5 200t155.5 72q99 0 155 -70zM152 438q-47 -62 -47 -179q0 -114 46.5 -176t129.5 -62q82 0 129.5 62t47.5 179q0 115 -46.5 176.5t-129.5 61.5t-130 -62z" />
    <glyph glyph-name="oacute" unicode="&#xf3;" horiz-adv-x="562" 
d="M437 461q56 -70 56 -199q0 -128 -57 -200t-155 -72q-99 0 -155.5 71.5t-56.5 197.5q0 128 57.5 200t155.5 72q99 0 155 -70zM152 438q-47 -62 -47 -179q0 -114 46.5 -176t129.5 -62q82 0 129.5 62t47.5 179q0 115 -46.5 176.5t-129.5 61.5t-130 -62zM370 734l-184 -84
l-12 23l180 96z" />
    <glyph glyph-name="oacute.loclPLK" horiz-adv-x="562" 
d="M437 461q56 -70 56 -199q0 -128 -57 -200t-155 -72q-99 0 -155.5 71.5t-56.5 197.5q0 128 57.5 200t155.5 72q99 0 155 -70zM152 438q-47 -62 -47 -179q0 -114 46.5 -176t129.5 -62q82 0 129.5 62t47.5 179q0 115 -46.5 176.5t-129.5 61.5t-130 -62zM383 732l-113 -154
l-20 13l101 162z" />
    <glyph glyph-name="uni0275" unicode="&#x275;" horiz-adv-x="562" 
d="M437 461q56 -70 56 -199q0 -128 -57 -200t-155 -72q-99 0 -155.5 71.5t-56.5 197.5q0 128 57.5 200t155.5 72q99 0 155 -70zM156 443.5q-47 -56.5 -51 -163.5h353q-4 106 -50 163t-126 57q-79 0 -126 -56.5zM408 80q47 59 50 169h-353q2 -109 48.5 -168.5t127.5 -59.5
q80 0 127 59z" />
    <glyph glyph-name="obreve" unicode="&#x14f;" horiz-adv-x="562" 
d="M437 461q56 -70 56 -199q0 -128 -57 -200t-155 -72q-99 0 -155.5 71.5t-56.5 197.5q0 128 57.5 200t155.5 72q99 0 155 -70zM152 438q-47 -62 -47 -179q0 -114 46.5 -176t129.5 -62q82 0 129.5 62t47.5 179q0 115 -46.5 176.5t-129.5 61.5t-130 -62zM204.5 686
q-31.5 26 -38.5 68l25 6q9 -33 32 -51t58 -18t58.5 18t32.5 51l25 -6q-7 -42 -38.5 -68t-77.5 -26q-45 0 -76.5 26z" />
    <glyph glyph-name="uni01D2" unicode="&#x1d2;" horiz-adv-x="562" 
d="M437 461q56 -70 56 -199q0 -128 -57 -200t-155 -72q-99 0 -155.5 71.5t-56.5 197.5q0 128 57.5 200t155.5 72q99 0 155 -70zM152 438q-47 -62 -47 -179q0 -114 46.5 -176t129.5 -62q82 0 129.5 62t47.5 179q0 115 -46.5 176.5t-129.5 61.5t-130 -62zM416 738l-124 -101
h-19l-126 101l17 20l118 -85l118 85z" />
    <glyph glyph-name="ocircumflex" unicode="&#xf4;" horiz-adv-x="562" 
d="M437 461q56 -70 56 -199q0 -128 -57 -200t-155 -72q-99 0 -155.5 71.5t-56.5 197.5q0 128 57.5 200t155.5 72q99 0 155 -70zM152 438q-47 -62 -47 -179q0 -114 46.5 -176t129.5 -62q82 0 129.5 62t47.5 179q0 115 -46.5 176.5t-129.5 61.5t-130 -62zM147 670l125 100h19
l125 -100l-16 -20l-119 85l-117 -85z" />
    <glyph glyph-name="uni1ED1" unicode="&#x1ed1;" horiz-adv-x="562" 
d="M494 794l-109 -115l-18 16l101 123zM281 665l-118 -79l-17 19l126 95h19l124 -95l-16 -19zM437 461q56 -70 56 -199q0 -128 -57 -200t-155 -72q-99 0 -155.5 71.5t-56.5 197.5q0 128 57.5 200t155.5 72q99 0 155 -70zM152 438q-47 -62 -47 -179q0 -114 46.5 -176
t129.5 -62q82 0 129.5 62t47.5 179q0 115 -46.5 176.5t-129.5 61.5t-130 -62z" />
    <glyph glyph-name="uni1ED9" unicode="&#x1ed9;" horiz-adv-x="562" 
d="M437 461q56 -70 56 -199q0 -128 -57 -200t-155 -72q-99 0 -155.5 71.5t-56.5 197.5q0 128 57.5 200t155.5 72q99 0 155 -70zM152 438q-47 -62 -47 -179q0 -114 46.5 -176t129.5 -62q82 0 129.5 62t47.5 179q0 115 -46.5 176.5t-129.5 61.5t-130 -62zM147 670l125 100h19
l125 -100l-16 -20l-119 85l-117 -85zM260.5 -141q-7.5 8 -7.5 19t7.5 19t21.5 8q12 0 20 -8t8 -19t-8 -19t-20 -8q-14 0 -21.5 8z" />
    <glyph glyph-name="uni1ED3" unicode="&#x1ed3;" horiz-adv-x="562" 
d="M202 695l-18 -16l-109 115l26 24zM281 665l-118 -79l-17 19l126 95h19l124 -95l-16 -19zM437 461q56 -70 56 -199q0 -128 -57 -200t-155 -72q-99 0 -155.5 71.5t-56.5 197.5q0 128 57.5 200t155.5 72q99 0 155 -70zM152 438q-47 -62 -47 -179q0 -114 46.5 -176t129.5 -62
q82 0 129.5 62t47.5 179q0 115 -46.5 176.5t-129.5 61.5t-130 -62z" />
    <glyph glyph-name="uni1ED5" unicode="&#x1ed5;" horiz-adv-x="562" 
d="M376 746q68 2 68 49q0 21 -13 32.5t-36 11.5q-30 0 -58 -14l-12 24q33 19 72 19q38 0 60 -19.5t22 -51.5q0 -63 -70 -71v-56h-33v76zM281 665l-118 -79l-17 19l126 95h19l124 -95l-16 -19zM437 461q56 -70 56 -199q0 -128 -57 -200t-155 -72q-99 0 -155.5 71.5
t-56.5 197.5q0 128 57.5 200t155.5 72q99 0 155 -70zM152 438q-47 -62 -47 -179q0 -114 46.5 -176t129.5 -62q82 0 129.5 62t47.5 179q0 115 -46.5 176.5t-129.5 61.5t-130 -62z" />
    <glyph glyph-name="uni1ED7" unicode="&#x1ed7;" horiz-adv-x="562" 
d="M307 740.5q-16 6.5 -37 18.5q-3 1 -13 7t-18.5 8.5t-15.5 2.5q-17 0 -30.5 -8t-28.5 -28l-21 12q33 54 80 54q13 0 26 -5t33 -16q21 -11 33.5 -16.5t25.5 -5.5q16 0 29 9.5t29 33.5l21 -12q-30 -61 -79 -61q-18 0 -34 6.5zM282 655l-118 -79l-17 19l126 95h19l124 -95
l-16 -19zM437 461q56 -70 56 -199q0 -128 -57 -200t-155 -72q-99 0 -155.5 71.5t-56.5 197.5q0 128 57.5 200t155.5 72q99 0 155 -70zM152 438q-47 -62 -47 -179q0 -114 46.5 -176t129.5 -62q82 0 129.5 62t47.5 179q0 115 -46.5 176.5t-129.5 61.5t-130 -62z" />
    <glyph glyph-name="uni020D" unicode="&#x20d;" horiz-adv-x="562" 
d="M437 461q56 -70 56 -199q0 -128 -57 -200t-155 -72q-99 0 -155.5 71.5t-56.5 197.5q0 128 57.5 200t155.5 72q99 0 155 -70zM152 438q-47 -62 -47 -179q0 -114 46.5 -176t129.5 -62q82 0 129.5 62t47.5 179q0 115 -46.5 176.5t-129.5 61.5t-130 -62zM252 660l-24 -12
l-84 131l34 17zM358 664l-24 -12l-76 126l34 18z" />
    <glyph glyph-name="odieresis" unicode="&#xf6;" horiz-adv-x="562" 
d="M437 461q56 -70 56 -199q0 -128 -57 -200t-155 -72q-99 0 -155.5 71.5t-56.5 197.5q0 128 57.5 200t155.5 72q99 0 155 -70zM152 438q-47 -62 -47 -179q0 -114 46.5 -176t129.5 -62q82 0 129.5 62t47.5 179q0 115 -46.5 176.5t-129.5 61.5t-130 -62zM213 715.5
q8 -7.5 8 -19.5q0 -11 -8 -19t-20 -8t-19.5 8t-7.5 19t7.5 19t19.5 8t20 -7.5zM388 715.5q8 -7.5 8 -19.5q0 -11 -8 -19t-20 -8q-13 0 -20.5 8t-7.5 19q0 12 7.5 19.5t20.5 7.5q12 0 20 -7.5z" />
    <glyph glyph-name="uni022B" unicode="&#x22b;" horiz-adv-x="562" 
d="M174 759v32h218v-32h-218zM213.5 685.5q7.5 -7.5 7.5 -19.5q0 -11 -7.5 -19t-20.5 -8q-12 0 -19.5 8t-7.5 19t7.5 19t19.5 8q13 0 20.5 -7.5zM388.5 685.5q7.5 -7.5 7.5 -19.5q0 -11 -7.5 -19t-20.5 -8q-12 0 -20 8t-8 19q0 12 8 19.5t20 7.5q13 0 20.5 -7.5zM437 461
q56 -70 56 -199q0 -128 -57 -200t-155 -72q-99 0 -155.5 71.5t-56.5 197.5q0 128 57.5 200t155.5 72q99 0 155 -70zM152 438q-47 -62 -47 -179q0 -114 46.5 -176t129.5 -62q82 0 129.5 62t47.5 179q0 115 -46.5 176.5t-129.5 61.5t-130 -62z" />
    <glyph glyph-name="uni022F" unicode="&#x22f;" horiz-adv-x="562" 
d="M437 461q56 -70 56 -199q0 -128 -57 -200t-155 -72q-99 0 -155.5 71.5t-56.5 197.5q0 128 57.5 200t155.5 72q99 0 155 -70zM152 438q-47 -62 -47 -179q0 -114 46.5 -176t129.5 -62q82 0 129.5 62t47.5 179q0 115 -46.5 176.5t-129.5 61.5t-130 -62zM302.5 726
q7.5 -8 7.5 -19q0 -12 -7.5 -20t-21.5 -8q-12 0 -20 8t-8 20q0 11 8 19t20 8q14 0 21.5 -8z" />
    <glyph glyph-name="uni0231" unicode="&#x231;" horiz-adv-x="562" 
d="M171 749v32h218v-32h-218zM300.5 676q7.5 -8 7.5 -19q0 -12 -7.5 -20t-21.5 -8q-12 0 -20 8t-8 20q0 11 8 19t20 8q14 0 21.5 -8zM437 461q56 -70 56 -199q0 -128 -57 -200t-155 -72q-99 0 -155.5 71.5t-56.5 197.5q0 128 57.5 200t155.5 72q99 0 155 -70zM152 438
q-47 -62 -47 -179q0 -114 46.5 -176t129.5 -62q82 0 129.5 62t47.5 179q0 115 -46.5 176.5t-129.5 61.5t-130 -62z" />
    <glyph glyph-name="uni1ECD" unicode="&#x1ecd;" horiz-adv-x="562" 
d="M437 461q56 -70 56 -199q0 -128 -57 -200t-155 -72q-99 0 -155.5 71.5t-56.5 197.5q0 128 57.5 200t155.5 72q99 0 155 -70zM152 438q-47 -62 -47 -179q0 -114 46.5 -176t129.5 -62q82 0 129.5 62t47.5 179q0 115 -46.5 176.5t-129.5 61.5t-130 -62zM260.5 -141
q-7.5 8 -7.5 19t7.5 19t21.5 8q12 0 20 -8t8 -19t-8 -19t-20 -8q-14 0 -21.5 8z" />
    <glyph glyph-name="ograve" unicode="&#xf2;" horiz-adv-x="562" 
d="M437 461q56 -70 56 -199q0 -128 -57 -200t-155 -72q-99 0 -155.5 71.5t-56.5 197.5q0 128 57.5 200t155.5 72q99 0 155 -70zM152 438q-47 -62 -47 -179q0 -114 46.5 -176t129.5 -62q82 0 129.5 62t47.5 179q0 115 -46.5 176.5t-129.5 61.5t-130 -62zM380 673l-12 -23
l-184 84l16 35z" />
    <glyph glyph-name="uni1ECF" unicode="&#x1ecf;" horiz-adv-x="562" 
d="M437 461q56 -70 56 -199q0 -128 -57 -200t-155 -72q-99 0 -155.5 71.5t-56.5 197.5q0 128 57.5 200t155.5 72q99 0 155 -70zM152 438q-47 -62 -47 -179q0 -114 46.5 -176t129.5 -62q82 0 129.5 62t47.5 179q0 115 -46.5 176.5t-129.5 61.5t-130 -62zM263 696q68 2 68 49
q0 21 -13 32.5t-36 11.5q-30 0 -58 -14l-12 24q33 19 72 19q38 0 60 -19.5t22 -51.5q0 -63 -70 -71v-56h-33v76z" />
    <glyph glyph-name="ohorn" unicode="&#x1a1;" horiz-adv-x="569" 
d="M511.5 465.5q-19.5 -20.5 -59.5 -27.5q41 -67 41 -176q0 -128 -57 -200t-155 -72q-99 0 -155.5 71.5t-56.5 197.5q0 128 57.5 200t155.5 72q99 0 156 -71q34 6 48 20.5t14 43.5q0 37 -14 72l27 9q18 -36 18 -81q0 -38 -19.5 -58.5zM410.5 83q47.5 62 47.5 179
q0 115 -46.5 176.5t-129.5 61.5t-130 -62t-47 -179q0 -114 46.5 -176t129.5 -62q82 0 129.5 62z" />
    <glyph glyph-name="uni1EDB" unicode="&#x1edb;" horiz-adv-x="569" 
d="M186 650l-12 23l180 96l16 -35zM511.5 465.5q-19.5 -20.5 -59.5 -27.5q41 -67 41 -176q0 -128 -57 -200t-155 -72q-99 0 -155.5 71.5t-56.5 197.5q0 128 57.5 200t155.5 72q99 0 156 -71q34 6 48 20.5t14 43.5q0 37 -14 72l27 9q18 -36 18 -81q0 -38 -19.5 -58.5z
M410.5 83q47.5 62 47.5 179q0 115 -46.5 176.5t-129.5 61.5t-130 -62t-47 -179q0 -114 46.5 -176t129.5 -62q82 0 129.5 62z" />
    <glyph glyph-name="uni1EE3" unicode="&#x1ee3;" horiz-adv-x="569" 
d="M511.5 465.5q-19.5 -20.5 -59.5 -27.5q41 -67 41 -176q0 -128 -57 -200t-155 -72q-99 0 -155.5 71.5t-56.5 197.5q0 128 57.5 200t155.5 72q99 0 156 -71q34 6 48 20.5t14 43.5q0 37 -14 72l27 9q18 -36 18 -81q0 -38 -19.5 -58.5zM410.5 83q47.5 62 47.5 179
q0 115 -46.5 176.5t-129.5 61.5t-130 -62t-47 -179q0 -114 46.5 -176t129.5 -62q82 0 129.5 62zM302 -103q8 -8 8 -19t-8 -19t-20 -8q-14 0 -21.5 8t-7.5 19t7.5 19t21.5 8q12 0 20 -8z" />
    <glyph glyph-name="uni1EDD" unicode="&#x1edd;" horiz-adv-x="569" 
d="M368 650l-184 84l16 35l180 -96zM511.5 465.5q-19.5 -20.5 -59.5 -27.5q41 -67 41 -176q0 -128 -57 -200t-155 -72q-99 0 -155.5 71.5t-56.5 197.5q0 128 57.5 200t155.5 72q99 0 156 -71q34 6 48 20.5t14 43.5q0 37 -14 72l27 9q18 -36 18 -81q0 -38 -19.5 -58.5z
M410.5 83q47.5 62 47.5 179q0 115 -46.5 176.5t-129.5 61.5t-130 -62t-47 -179q0 -114 46.5 -176t129.5 -62q82 0 129.5 62z" />
    <glyph glyph-name="uni1EDF" unicode="&#x1edf;" horiz-adv-x="569" 
d="M224 775l-12 24q33 19 72 19q38 0 60 -19.5t22 -51.5q0 -63 -70 -71v-56h-33v76q68 2 68 49q0 21 -13 32.5t-36 11.5q-30 0 -58 -14zM511.5 465.5q-19.5 -20.5 -59.5 -27.5q41 -67 41 -176q0 -128 -57 -200t-155 -72q-99 0 -155.5 71.5t-56.5 197.5q0 128 57.5 200
t155.5 72q99 0 156 -71q34 6 48 20.5t14 43.5q0 37 -14 72l27 9q18 -36 18 -81q0 -38 -19.5 -58.5zM410.5 83q47.5 62 47.5 179q0 115 -46.5 176.5t-129.5 61.5t-130 -62t-47 -179q0 -114 46.5 -176t129.5 -62q82 0 129.5 62z" />
    <glyph glyph-name="uni1EE1" unicode="&#x1ee1;" horiz-adv-x="569" 
d="M192.5 709q-13.5 -8 -28.5 -28l-21 12q33 54 80 54q13 0 26 -5t33 -16q21 -11 33.5 -16.5t25.5 -5.5q16 0 29 9.5t29 33.5l21 -12q-30 -61 -79 -61q-18 0 -34 6.5t-37 18.5q-3 1 -13 7t-18.5 8.5t-15.5 2.5q-17 0 -30.5 -8zM511.5 465.5q-19.5 -20.5 -59.5 -27.5
q41 -67 41 -176q0 -128 -57 -200t-155 -72q-99 0 -155.5 71.5t-56.5 197.5q0 128 57.5 200t155.5 72q99 0 156 -71q34 6 48 20.5t14 43.5q0 37 -14 72l27 9q18 -36 18 -81q0 -38 -19.5 -58.5zM410.5 83q47.5 62 47.5 179q0 115 -46.5 176.5t-129.5 61.5t-130 -62t-47 -179
q0 -114 46.5 -176t129.5 -62q82 0 129.5 62z" />
    <glyph glyph-name="ohungarumlaut" unicode="&#x151;" horiz-adv-x="562" 
d="M437 461q56 -70 56 -199q0 -128 -57 -200t-155 -72q-99 0 -155.5 71.5t-56.5 197.5q0 128 57.5 200t155.5 72q99 0 155 -70zM152 438q-47 -62 -47 -179q0 -114 46.5 -176t129.5 -62q82 0 129.5 62t47.5 179q0 115 -46.5 176.5t-129.5 61.5t-130 -62zM424 779l-83 -131
l-25 12l74 136zM311 778l-77 -126l-24 12l67 132z" />
    <glyph glyph-name="uni01A3" unicode="&#x1a3;" horiz-adv-x="748" 
d="M600.5 497q33.5 -34 33.5 -101v-596l-34 6v589q0 57 -24.5 81.5t-69.5 24.5q-44 0 -91 -18q38 -33 58 -89t20 -132q0 -128 -57 -200t-155 -72q-99 0 -155.5 71.5t-56.5 197.5q0 128 57.5 200t155.5 72q61 0 108 -29q55 29 117 29q60 0 93.5 -34zM411.5 438.5
q-46.5 61.5 -129.5 61.5t-130 -62t-47 -179q0 -114 46.5 -176t129.5 -62q82 0 129.5 62t47.5 179q0 115 -46.5 176.5z" />
    <glyph glyph-name="uni020F" unicode="&#x20f;" horiz-adv-x="562" 
d="M437 461q56 -70 56 -199q0 -128 -57 -200t-155 -72q-99 0 -155.5 71.5t-56.5 197.5q0 128 57.5 200t155.5 72q99 0 155 -70zM152 438q-47 -62 -47 -179q0 -114 46.5 -176t129.5 -62q82 0 129.5 62t47.5 179q0 115 -46.5 176.5t-129.5 61.5t-130 -62zM358.5 703.5
q31.5 -26.5 38.5 -68.5l-25 -5q-9 33 -32.5 50.5t-58.5 17.5t-58 -17.5t-32 -50.5l-25 5q7 42 38.5 68.5t76.5 26.5q46 0 77.5 -26.5z" />
    <glyph glyph-name="omacron" unicode="&#x14d;" horiz-adv-x="562" 
d="M437 461q56 -70 56 -199q0 -128 -57 -200t-155 -72q-99 0 -155.5 71.5t-56.5 197.5q0 128 57.5 200t155.5 72q99 0 155 -70zM152 438q-47 -62 -47 -179q0 -114 46.5 -176t129.5 -62q82 0 129.5 62t47.5 179q0 115 -46.5 176.5t-129.5 61.5t-130 -62zM173 682v32h218v-32
h-218z" />
    <glyph glyph-name="uni1E53" unicode="&#x1e53;" horiz-adv-x="562" 
d="M381 789l-186 -76l-10 22l178 89zM173 623v32h218v-32h-218zM437 461q56 -70 56 -199q0 -128 -57 -200t-155 -72q-99 0 -155.5 71.5t-56.5 197.5q0 128 57.5 200t155.5 72q99 0 155 -70zM152 438q-47 -62 -47 -179q0 -114 46.5 -176t129.5 -62q82 0 129.5 62t47.5 179
q0 115 -46.5 176.5t-129.5 61.5t-130 -62z" />
    <glyph glyph-name="uni1E51" unicode="&#x1e51;" horiz-adv-x="562" 
d="M381 735l-10 -22l-186 76l17 35zM173 623v32h218v-32h-218zM437 461q56 -70 56 -199q0 -128 -57 -200t-155 -72q-99 0 -155.5 71.5t-56.5 197.5q0 128 57.5 200t155.5 72q99 0 155 -70zM152 438q-47 -62 -47 -179q0 -114 46.5 -176t129.5 -62q82 0 129.5 62t47.5 179
q0 115 -46.5 176.5t-129.5 61.5t-130 -62z" />
    <glyph glyph-name="uni0277" unicode="&#x277;" horiz-adv-x="741" 
d="M598 452.5q74 -78.5 74 -217.5q0 -134 -48 -189.5t-120 -55.5q-56 0 -91 30t-42 92q-10 -62 -45.5 -92t-89.5 -30q-78 0 -122.5 60.5t-44.5 186.5q0 138 75 216t228 78q152 0 226 -78.5zM598.5 68q38.5 47 38.5 165q0 129 -65.5 198t-199.5 69t-201 -69t-67 -196
q0 -115 37 -164.5t95 -49.5q52 0 84.5 37t32.5 120v133l35 5v-139q0 -83 31.5 -119.5t81.5 -36.5q59 0 97.5 47z" />
    </font>
</defs>
</svg>
